  0
SECTION
  2
HEADER
  9
$ACADVER
  1
AC1015
  9
$ACADMAINTVER
 70
     6
  9
$DWGCODEPAGE
  3
ANSI_1252
  9
$INSBASE
 10
0.0
 20
0.0
 30
0.0
  9
$EXTMIN
 10
4367.499298947225
 20
738.1925014954597
 30
0.0
  9
$EXTMAX
 10
4922.499298947225
 20
1139.19250149546
 30
0.0
  9
$LIMMIN
 10
0.0
 20
0.0
  9
$LIMMAX
 10
12.0
 20
9.0
  9
$ORTHOMODE
 70
     0
  9
$REGENMODE
 70
     1
  9
$FILLMODE
 70
     1
  9
$QTEXTMODE
 70
     0
  9
$MIRRTEXT
 70
     1
  9
$LTSCALE
 40
1.0
  9
$ATTMODE
 70
     1
  9
$TEXTSIZE
 40
0.2
  9
$TRACEWID
 40
0.05
  9
$TEXTSTYLE
  7
Standard
  9
$CLAYER
  8
0
  9
$CELTYPE
  6
ByLayer
  9
$CECOLOR
 62
   256
  9
$CELTSCALE
 40
1.0
  9
$DISPSILH
 70
     0
  9
$DIMSCALE
 40
1.0
  9
$DIMASZ
 40
0.18
  9
$DIMEXO
 40
0.0625
  9
$DIMDLI
 40
0.38
  9
$DIMRND
 40
0.0
  9
$DIMDLE
 40
0.0
  9
$DIMEXE
 40
0.18
  9
$DIMTP
 40
0.0
  9
$DIMTM
 40
0.0
  9
$DIMTXT
 40
0.18
  9
$DIMCEN
 40
0.09
  9
$DIMTSZ
 40
0.0
  9
$DIMTOL
 70
     0
  9
$DIMLIM
 70
     0
  9
$DIMTIH
 70
     1
  9
$DIMTOH
 70
     1
  9
$DIMSE1
 70
     0
  9
$DIMSE2
 70
     0
  9
$DIMTAD
 70
     0
  9
$DIMZIN
 70
     0
  9
$DIMBLK
  1

  9
$DIMASO
 70
     1
  9
$DIMSHO
 70
     1
  9
$DIMPOST
  1

  9
$DIMAPOST
  1

  9
$DIMALT
 70
     0
  9
$DIMALTD
 70
     2
  9
$DIMALTF
 40
25.4
  9
$DIMLFAC
 40
1.0
  9
$DIMTOFL
 70
     0
  9
$DIMTVP
 40
0.0
  9
$DIMTIX
 70
     0
  9
$DIMSOXD
 70
     0
  9
$DIMSAH
 70
     0
  9
$DIMBLK1
  1

  9
$DIMBLK2
  1

  9
$DIMSTYLE
  2
Standard
  9
$DIMCLRD
 70
     0
  9
$DIMCLRE
 70
     0
  9
$DIMCLRT
 70
     0
  9
$DIMTFAC
 40
1.0
  9
$DIMGAP
 40
0.09
  9
$DIMJUST
 70
     0
  9
$DIMSD1
 70
     0
  9
$DIMSD2
 70
     0
  9
$DIMTOLJ
 70
     1
  9
$DIMTZIN
 70
     0
  9
$DIMALTZ
 70
     0
  9
$DIMALTTZ
 70
     0
  9
$DIMUPT
 70
     0
  9
$DIMDEC
 70
     4
  9
$DIMTDEC
 70
     4
  9
$DIMALTU
 70
     2
  9
$DIMALTTD
 70
     2
  9
$DIMTXSTY
  7
Standard
  9
$DIMAUNIT
 70
     0
  9
$DIMADEC
 70
     0
  9
$DIMALTRND
 40
0.0
  9
$DIMAZIN
 70
     0
  9
$DIMDSEP
 70
    46
  9
$DIMATFIT
 70
     3
  9
$DIMFRAC
 70
     0
  9
$DIMLDRBLK
  1

  9
$DIMLUNIT
 70
     2
  9
$DIMLWD
 70
    -2
  9
$DIMLWE
 70
    -2
  9
$DIMTMOVE
 70
     0
  9
$LUNITS
 70
     2
  9
$LUPREC
 70
     4
  9
$SKETCHINC
 40
0.1
  9
$FILLETRAD
 40
0.5
  9
$AUNITS
 70
     0
  9
$AUPREC
 70
     0
  9
$MENU
  1
.
  9
$ELEVATION
 40
0.0
  9
$PELEVATION
 40
0.0
  9
$THICKNESS
 40
0.0
  9
$LIMCHECK
 70
     0
  9
$CHAMFERA
 40
0.5
  9
$CHAMFERB
 40
0.5
  9
$CHAMFERC
 40
1.0
  9
$CHAMFERD
 40
0.0
  9
$SKPOLY
 70
     0
  9
$TDCREATE
 40
2456238.437852257
  9
$TDUCREATE
 40
2456238.39618559
  9
$TDUPDATE
 40
2456238.437852269
  9
$TDUUPDATE
 40
2456238.396185602
  9
$TDINDWG
 40
0.0000000116
  9
$TDUSRTIMER
 40
0.0000000116
  9
$USRTIMER
 70
     1
  9
$ANGBASE
 50
0.0
  9
$ANGDIR
 70
     0
  9
$PDMODE
 70
     0
  9
$PDSIZE
 40
0.0
  9
$PLINEWID
 40
0.0
  9
$SPLFRAME
 70
     0
  9
$SPLINETYPE
 70
     6
  9
$SPLINESEGS
 70
     8
  9
$HANDSEED
  5
27C
  9
$SURFTAB1
 70
     6
  9
$SURFTAB2
 70
     6
  9
$SURFTYPE
 70
     6
  9
$SURFU
 70
     6
  9
$SURFV
 70
     6
  9
$UCSBASE
  2

  9
$UCSNAME
  2

  9
$UCSORG
 10
0.0
 20
0.0
 30
0.0
  9
$UCSXDIR
 10
1.0
 20
0.0
 30
0.0
  9
$UCSYDIR
 10
0.0
 20
1.0
 30
0.0
  9
$UCSORTHOREF
  2

  9
$UCSORTHOVIEW
 70
     0
  9
$UCSORGTOP
 10
0.0
 20
0.0
 30
0.0
  9
$UCSORGBOTTOM
 10
0.0
 20
0.0
 30
0.0
  9
$UCSORGLEFT
 10
0.0
 20
0.0
 30
0.0
  9
$UCSORGRIGHT
 10
0.0
 20
0.0
 30
0.0
  9
$UCSORGFRONT
 10
0.0
 20
0.0
 30
0.0
  9
$UCSORGBACK
 10
0.0
 20
0.0
 30
0.0
  9
$PUCSBASE
  2

  9
$PUCSNAME
  2

  9
$PUCSORG
 10
0.0
 20
0.0
 30
0.0
  9
$PUCSXDIR
 10
1.0
 20
0.0
 30
0.0
  9
$PUCSYDIR
 10
0.0
 20
1.0
 30
0.0
  9
$PUCSORTHOREF
  2

  9
$PUCSORTHOVIEW
 70
     0
  9
$PUCSORGTOP
 10
0.0
 20
0.0
 30
0.0
  9
$PUCSORGBOTTOM
 10
0.0
 20
0.0
 30
0.0
  9
$PUCSORGLEFT
 10
0.0
 20
0.0
 30
0.0
  9
$PUCSORGRIGHT
 10
0.0
 20
0.0
 30
0.0
  9
$PUCSORGFRONT
 10
0.0
 20
0.0
 30
0.0
  9
$PUCSORGBACK
 10
0.0
 20
0.0
 30
0.0
  9
$USERI1
 70
     0
  9
$USERI2
 70
     0
  9
$USERI3
 70
     0
  9
$USERI4
 70
     0
  9
$USERI5
 70
     0
  9
$USERR1
 40
18.0
  9
$USERR2
 40
0.0
  9
$USERR3
 40
0.0
  9
$USERR4
 40
0.0
  9
$USERR5
 40
0.0
  9
$WORLDVIEW
 70
     1
  9
$SHADEDGE
 70
     3
  9
$SHADEDIF
 70
    70
  9
$TILEMODE
 70
     1
  9
$MAXACTVP
 70
    64
  9
$PINSBASE
 10
0.0
 20
0.0
 30
0.0
  9
$PLIMCHECK
 70
     0
  9
$PEXTMIN
 10
1.00000000000000E+20
 20
1.00000000000000E+20
 30
1.00000000000000E+20
  9
$PEXTMAX
 10
-1.00000000000000E+20
 20
-1.00000000000000E+20
 30
-1.00000000000000E+20
  9
$PLIMMIN
 10
0.0
 20
0.0
  9
$PLIMMAX
 10
12.0
 20
9.0
  9
$UNITMODE
 70
     0
  9
$VISRETAIN
 70
     1
  9
$PLINEGEN
 70
     0
  9
$PSLTSCALE
 70
     1
  9
$TREEDEPTH
 70
  3020
  9
$CMLSTYLE
  2
Standard
  9
$CMLJUST
 70
     0
  9
$CMLSCALE
 40
1.0
  9
$PROXYGRAPHICS
 70
     1
  9
$MEASUREMENT
 70
     1
  9
$CELWEIGHT
370
    -1
  9
$ENDCAPS
280
     0
  9
$JOINSTYLE
280
     0
  9
$LWDISPLAY
290
     0
  9
$INSUNITS
 70
     1
  9
$HYPERLINKBASE
  1

  9
$STYLESHEET
  1

  9
$XEDIT
290
     1
  9
$CEPSNTYPE
380
     0
  9
$PSTYLEMODE
290
     1
  9
$FINGERPRINTGUID
  2
{DC60520E-AAA9-440C-96F1-AFA92C23AE98}
  9
$VERSIONGUID
  2
{FAEB1C32-E019-11D5-929B-00C0DF256EC4}
  9
$EXTNAMES
290
     1
  9
$PSVPSCALE
 40
0.0
  9
$OLESTARTUP
290
     0
  0
ENDSEC
  0
SECTION
  2
CLASSES
  0
CLASS
  1
ACDBDICTIONARYWDFLT
  2
AcDbDictionaryWithDefault
  3
ObjectDBX Classes
 90
        0
280
     0
281
     0
  0
CLASS
  1
VISUALSTYLE
  2
AcDbVisualStyle
  3
ObjectDBX Classes
 90
     4095
280
     0
281
     0
  0
CLASS
  1
MATERIAL
  2
AcDbMaterial
  3
ObjectDBX Classes
 90
     1153
280
     0
281
     0
  0
CLASS
  1
SCALE
  2
AcDbScale
  3
ObjectDBX Classes
 90
     1153
280
     0
281
     0
  0
CLASS
  1

  2
exOdDbPolyline
  3

 90
        0
280
     0
281
     1
  0
CLASS
  1

  2
exOdDbCircle
  3

 90
        0
280
     0
281
     1
  0
CLASS
  1

  2
exOdDbSpline
  3

 90
        0
280
     0
281
     1
  0
CLASS
  1
DICTIONARYVAR
  2
AcDbDictionaryVar
  3
ObjectDBX Classes
 90
        0
280
     0
281
     0
  0
CLASS
  1
ACDBPLACEHOLDER
  2
AcDbPlaceHolder
  3
ObjectDBX Classes
 90
        0
280
     0
281
     0
  0
CLASS
  1
LAYOUT
  2
AcDbLayout
  3
ObjectDBX Classes
 90
        0
280
     0
281
     0
  0
ENDSEC
  0
SECTION
  2
TABLES
  0
TABLE
  2
VPORT
  5
8
330
0
100
AcDbSymbolTable
 70
     1
  0
VPORT
  5
29
330
8
100
AcDbSymbolTableRecord
100
AcDbViewportTableRecord
  2
*Active
 70
     0
 10
0.0
 20
0.0
 11
1.0
 21
1.0
 12
4644.999298947225
 22
938.6925014954599
 13
0.0
 23
0.0
 14
0.5
 24
0.5
 15
0.5
 25
0.5
 16
0.0
 26
0.0
 36
1.0
 17
0.0
 27
0.0
 37
0.0
 40
441.1000000000003
 41
1.60267857142857
 42
50.0
 43
0.0
 44
0.0
 50
0.0
 51
0.0
 71
     0
 72
   100
 73
     1
 74
     3
 75
     0
 76
     0
 77
     0
 78
     0
281
     0
 65
     1
110
0.0
120
0.0
130
0.0
111
1.0
121
0.0
131
0.0
112
0.0
122
1.0
132
0.0
 79
     0
146
0.0
  0
ENDTAB
  0
TABLE
  2
LTYPE
  5
5
330
0
100
AcDbSymbolTable
 70
     8
  0
LTYPE
  5
14
330
5
100
AcDbSymbolTableRecord
100
AcDbLinetypeTableRecord
  2
ByBlock
 70
     0
  3

 72
    65
 73
     0
 40
0.0
  0
LTYPE
  5
15
330
5
100
AcDbSymbolTableRecord
100
AcDbLinetypeTableRecord
  2
ByLayer
 70
     0
  3

 72
    65
 73
     0
 40
0.0
  0
LTYPE
  5
16
330
5
100
AcDbSymbolTableRecord
100
AcDbLinetypeTableRecord
  2
Continuous
 70
     0
  3
Solid line
 72
    65
 73
     0
 40
0.0
  0
LTYPE
  5
3F
330
5
100
AcDbSymbolTableRecord
100
AcDbLinetypeTableRecord
  2
DASHED
 70
     0
  3
Dashed
 72
    65
 73
     2
 40
15.0
 49
7.0
 74
     0
 49
-8.0
 74
     0
  0
LTYPE
  5
40
330
5
100
AcDbSymbolTableRecord
100
AcDbLinetypeTableRecord
  2
DOTTED
 70
     0
  3
Dotted
 72
    65
 73
     2
 40
1.0
 49
0.0
 74
     0
 49
-1.0
 74
     0
  0
LTYPE
  5
41
330
5
100
AcDbSymbolTableRecord
100
AcDbLinetypeTableRecord
  2
DOT_CENTER
 70
     0
  3
Dot_Center
 72
    65
 73
     4
 40
14.0
 49
12.0
 74
     0
 49
-1.0
 74
     0
 49
0.0
 74
     0
 49
-1.0
 74
     0
  0
LTYPE
  5
42
330
5
100
AcDbSymbolTableRecord
100
AcDbLinetypeTableRecord
  2
LONG_DASHED
 70
     0
  3
Long_Dashed
 72
    65
 73
     2
 40
15.0
 49
10.0
 74
     0
 49
-5.0
 74
     0
  0
LTYPE
  5
43
330
5
100
AcDbSymbolTableRecord
100
AcDbLinetypeTableRecord
  2
DASH_CENTER
 70
     0
  3
Dash_Center
 72
    65
 73
     4
 40
14.0
 49
11.0
 74
     0
 49
-1.0
 74
     0
 49
1.0
 74
     0
 49
-1.0
 74
     0
  0
LTYPE
  5
44
330
5
100
AcDbSymbolTableRecord
100
AcDbLinetypeTableRecord
  2
PHANTOM
 70
     0
  3
Phantom
 72
    65
 73
     6
 40
13.0
 49
10.0
 74
     0
 49
-1.0
 74
     0
 49
0.0
 74
     0
 49
-1.0
 74
     0
 49
0.0
 74
     0
 49
-1.0
 74
     0
  0
LTYPE
  5
45
330
5
100
AcDbSymbolTableRecord
100
AcDbLinetypeTableRecord
  2
CENTER_DASH_DASH
 70
     0
  3
Center_Dash_Dash
 72
    65
 73
     6
 40
14.0
 49
9.0
 74
     0
 49
-1.0
 74
     0
 49
1.0
 74
     0
 49
-1.0
 74
     0
 49
1.0
 74
     0
 49
-1.0
 74
     0
  0
ENDTAB
  0
TABLE
  2
LAYER
  5
2
330
0
100
AcDbSymbolTable
 70
     5
  0
LAYER
  5
10
330
2
100
AcDbSymbolTableRecord
100
AcDbLayerTableRecord
  2
0
 70
     0
 62
     7
  6
Continuous
370
    -3
390
F
  0
LAYER
  5
46
330
2
100
AcDbSymbolTableRecord
100
AcDbLayerTableRecord
  2
1
 70
     0
 62
     7
  6
Continuous
370
    -3
390
F
  0
LAYER
  5
47
330
2
100
AcDbSymbolTableRecord
100
AcDbLayerTableRecord
  2
Schraffur
 70
     0
 62
     7
  6
Continuous
370
    -3
390
F
  0
LAYER
  5
48
330
2
100
AcDbSymbolTableRecord
100
AcDbLayerTableRecord
  2
Skizziergeometrie_ISO_
 70
     0
 62
     7
  6
Continuous
370
    -3
390
F
  0
LAYER
  5
49
330
2
100
AcDbSymbolTableRecord
100
AcDbLayerTableRecord
  2
Symbole_ISO_
 70
     0
 62
     7
  6
Continuous
370
    -3
390
F
  0
ENDTAB
  0
TABLE
  2
STYLE
  5
3
330
0
100
AcDbSymbolTable
 70
     6
  0
STYLE
  5
11
330
3
100
AcDbSymbolTableRecord
100
AcDbTextStyleTableRecord
  2
Standard
 70
     0
 40
0.0
 41
1.0
 50
0.0
 71
     0
 42
0.2
  3
txt
  4

  0
STYLE
  5
75
330
3
100
AcDbSymbolTableRecord
100
AcDbTextStyleTableRecord
  2
CONVERTER_11
 70
     0
 40
0.0
 41
0.67499998211861
 50
0.0
 71
     0
 42
0.2
  3
txt.shx
  4

  0
STYLE
  5
21A
330
3
100
AcDbSymbolTableRecord
100
AcDbTextStyleTableRecord
  2
CONVERTER_12
 70
     0
 40
0.0
 41
0.9
 50
0.0
 71
     0
 42
0.2
  3
txt.shx
  4

  0
STYLE
  5
220
330
3
100
AcDbSymbolTableRecord
100
AcDbTextStyleTableRecord
  2
CONVERTER_13
 70
     0
 40
0.0
 41
0.89999994635582
 50
0.0
 71
     0
 42
0.2
  3
txt.shx
  4

  0
STYLE
  5
224
330
3
100
AcDbSymbolTableRecord
100
AcDbTextStyleTableRecord
  2
CONVERTER_14
 70
     0
 40
0.0
 41
0.9
 50
0.0
 71
     0
 42
0.2
  3
txt.shx
  4

  0
STYLE
  5
22E
330
3
100
AcDbSymbolTableRecord
100
AcDbTextStyleTableRecord
  2
CONVERTER_15
 70
     0
 40
0.0
 41
0.95
 50
0.0
 71
     0
 42
0.2
  3
simplex.shx
  4

  0
ENDTAB
  0
TABLE
  2
VIEW
  5
6
330
0
100
AcDbSymbolTable
 70
     0
  0
ENDTAB
  0
TABLE
  2
UCS
  5
7
330
0
100
AcDbSymbolTable
 70
     0
  0
ENDTAB
  0
TABLE
  2
APPID
  5
9
330
0
100
AcDbSymbolTable
 70
     1
  0
APPID
  5
12
330
9
100
AcDbSymbolTableRecord
100
AcDbRegAppTableRecord
  2
ACAD
 70
     0
  0
ENDTAB
  0
TABLE
  2
DIMSTYLE
  5
A
330
0
100
AcDbSymbolTable
 70
     4
100
AcDbDimStyleTable
  0
DIMSTYLE
105
27
330
A
100
AcDbSymbolTableRecord
100
AcDbDimStyleTableRecord
  2
Standard
 70
     0
340
11
  0
DIMSTYLE
105
232
102
{ACAD_REACTORS
330
233
102
}
330
A
100
AcDbSymbolTableRecord
100
AcDbDimStyleTableRecord
  2
ME10_DIM_10
 70
     0
 41
6.0
 42
1.0
 44
2.0
 73
     0
 74
     0
 78
     8
140
6.0
147
4.0
172
     1
173
     1
174
     1
175
     1
176
     2
177
     2
178
     4
271
     0
340
22E
  0
DIMSTYLE
105
23E
102
{ACAD_REACTORS
330
23F
102
}
330
A
100
AcDbSymbolTableRecord
100
AcDbDimStyleTableRecord
  2
ME10_DIM_11
 70
     0
 41
6.0
 42
1.0
 44
2.0
 73
     0
 74
     0
 78
     8
140
6.0
147
4.0
172
     1
173
     1
174
     1
175
     1
176
     2
177
     2
178
     4
271
     0
340
22E
  0
DIMSTYLE
105
24A
102
{ACAD_REACTORS
330
24B
102
}
330
A
100
AcDbSymbolTableRecord
100
AcDbDimStyleTableRecord
  2
ME10_DIM_12
 70
     0
 41
6.0
 42
1.0
 44
2.0
 73
     0
 74
     0
 78
     8
140
6.0
147
4.0
172
     1
173
     1
174
     1
175
     1
176
     2
177
     2
178
     4
271
     1
340
22E
  0
ENDTAB
  0
TABLE
  2
BLOCK_RECORD
  5
1
330
0
100
AcDbSymbolTable
 70
     5
  0
BLOCK_RECORD
  5
1F
330
1
100
AcDbSymbolTableRecord
100
AcDbBlockTableRecord
  2
*Model_Space
340
22
  0
BLOCK_RECORD
  5
1B
330
1
100
AcDbSymbolTableRecord
100
AcDbBlockTableRecord
  2
*Paper_Space
340
1E
  0
BLOCK_RECORD
  5
23
330
1
100
AcDbSymbolTableRecord
100
AcDbBlockTableRecord
  2
*Paper_Space0
340
26
  0
BLOCK_RECORD
  5
4A
330
1
100
AcDbSymbolTableRecord
100
AcDbBlockTableRecord
  2
Ränder_Ilme_Rahmen_A4_quer
340
0
102
{BLKREFS
331
6F
102
}
  0
BLOCK_RECORD
  5
227
330
1
100
AcDbSymbolTableRecord
100
AcDbBlockTableRecord
  2
*D2
340
0
  0
BLOCK_RECORD
  5
234
330
1
100
AcDbSymbolTableRecord
100
AcDbBlockTableRecord
  2
*D3
340
0
  0
BLOCK_RECORD
  5
240
330
1
100
AcDbSymbolTableRecord
100
AcDbBlockTableRecord
  2
*D4
340
0
  0
ENDTAB
  0
ENDSEC
  0
SECTION
  2
BLOCKS
  0
BLOCK
  5
20
330
1F
100
AcDbEntity
  8
0
100
AcDbBlockBegin
  2
*Model_Space
 70
     0
 10
0.0
 20
0.0
 30
0.0
  3
*Model_Space
  1

  0
ENDBLK
  5
21
330
1F
100
AcDbEntity
  8
0
100
AcDbBlockEnd
  0
BLOCK
  5
1C
330
1B
100
AcDbEntity
 67
     1
  8
0
100
AcDbBlockBegin
  2
*Paper_Space
 70
     0
 10
0.0
 20
0.0
 30
0.0
  3
*Paper_Space
  1

  0
ENDBLK
  5
1D
330
1B
100
AcDbEntity
 67
     1
  8
0
100
AcDbBlockEnd
  0
BLOCK
  5
24
330
23
100
AcDbEntity
  8
0
100
AcDbBlockBegin
  2
*Paper_Space0
 70
     0
 10
0.0
 20
0.0
 30
0.0
  3
*Paper_Space0
  1

  0
ENDBLK
  5
25
330
23
100
AcDbEntity
  8
0
100
AcDbBlockEnd
  0
BLOCK
  5
4B
330
4A
100
AcDbEntity
  8
0
100
AcDbBlockBegin
  2
Ränder_Ilme_Rahmen_A4_quer
 70
     0
 10
4347.999298947225
 20
718.69250149546
 30
0.0
  3
Ränder_Ilme_Rahmen_A4_quer
  1

  0
LWPOLYLINE
  5
70
330
4A
100
AcDbEntity
  8
Skizziergeometrie_ISO_
  6
Continuous
 62
     7
100
AcDbPolyline
 90
        2
 70
     0
 43
0.5
 10
4367.999298947225
 20
738.69250149546
 10
4367.999298947225
 20
1098.69250149546
  0
LWPOLYLINE
  5
71
330
4A
100
AcDbEntity
  8
Skizziergeometrie_ISO_
  6
Continuous
 62
     7
100
AcDbPolyline
 90
        2
 70
     0
 43
0.5
 10
4367.999298947225
 20
1098.69250149546
 10
4921.999298947225
 20
1098.69250149546
  0
LWPOLYLINE
  5
72
330
4A
100
AcDbEntity
  8
Skizziergeometrie_ISO_
  6
Continuous
 62
     7
100
AcDbPolyline
 90
        2
 70
     0
 43
0.5
 10
4367.999298947225
 20
738.69250149546
 10
4921.999298947225
 20
738.69250149546
  0
LWPOLYLINE
  5
73
330
4A
100
AcDbEntity
  8
Skizziergeometrie_ISO_
  6
Continuous
 62
     7
100
AcDbPolyline
 90
        2
 70
     0
 43
0.5
 10
4644.999298947225
 20
1138.69250149546
 10
4644.999298947225
 20
1110.69250149546
  0
LWPOLYLINE
  5
74
330
4A
100
AcDbEntity
  8
Skizziergeometrie_ISO_
  6
Continuous
 62
     7
100
AcDbPolyline
 90
        2
 70
     0
 43
0.5
 10
4921.999298947225
 20
1098.69250149546
 10
4921.999298947225
 20
738.69250149546
  0
MTEXT
  5
76
330
4A
100
AcDbEntity
  8
Symbole_ISO_
 62
     7
100
AcDbMText
 10
4649.599298947225
 20
1111.52226165553
 30
0.0
 40
7.0
 41
0.0
 71
     2
 72
     1
  1
Diritti riservati     All rights reserved
  7
CONVERTER_11
 73
     1
 44
0.75727272727273
  0
ENDBLK
  5
4C
330
4A
100
AcDbEntity
  8
0
100
AcDbBlockEnd
  0
BLOCK
  5
230
330
227
100
AcDbEntity
  8
0
100
AcDbBlockBegin
  2
*D2
 70
     1
 10
0.0
 20
0.0
 30
0.0
  3
*D2
  1

  0
LINE
  5
228
330
227
100
AcDbEntity
  8
1
  6
Continuous
 62
     2
100
AcDbLine
 10
4511.92688448801
 20
969.0746550326244
 30
0.0
 11
4599.16819892388
 21
969.0746550326244
 31
0.0
  0
LINE
  5
229
330
227
100
AcDbEntity
  8
1
  6
Continuous
 62
     2
100
AcDbLine
 10
4619.768198923881
 20
969.0746550326244
 30
0.0
 11
4707.009513359752
 21
969.0746550326244
 31
0.0
  0
LINE
  5
22A
330
227
100
AcDbEntity
  8
1
  6
Continuous
 62
     2
100
AcDbLine
 10
4511.92688448801
 20
1029.575981865618
 30
0.0
 11
4511.92688448801
 21
967.0746550326244
 31
0.0
  0
LINE
  5
22B
330
227
100
AcDbEntity
  8
1
  6
Continuous
 62
     2
100
AcDbLine
 10
4707.009513359752
 20
991.0846972515756
 30
0.0
 11
4707.009513359752
 21
967.0746550326244
 31
0.0
  0
SOLID
  5
22C
330
227
100
AcDbEntity
  8
1
 62
     2
100
AcDbTrace
 10
4517.92688448801
 20
969.8645700181487
 30
0.0
 11
4517.92688448801
 21
968.2847400471001
 31
0.0
 12
4511.92688448801
 22
969.0746550326244
 32
0.0
 13
4511.92688448801
 23
969.0746550326244
 33
0.0
  0
SOLID
  5
22D
330
227
100
AcDbEntity
  8
1
 62
     2
100
AcDbTrace
 10
4701.009513359752
 20
968.2847400471001
 30
0.0
 11
4701.009513359752
 21
969.8645700181487
 31
0.0
 12
4707.009513359752
 22
969.0746550326244
 32
0.0
 13
4707.009513359752
 23
969.0746550326244
 33
0.0
  0
MTEXT
  5
22F
330
227
100
AcDbEntity
  8
1
 62
     4
100
AcDbMText
 10
4603.16819892388
 20
966.0746550326244
 30
0.0
 40
6.0
 41
0.0
 71
     7
 72
     1
  1
195
  7
CONVERTER_15
 11
0.9999999999970619
 21
2.424068405545306E-6
 31
0.0
 73
     1
 44
0.60024009603842
  0
ENDBLK
  5
231
330
227
100
AcDbEntity
  8
0
100
AcDbBlockEnd
  0
BLOCK
  5
23C
330
234
100
AcDbEntity
  8
0
100
AcDbBlockBegin
  2
*D3
 70
     1
 10
0.0
 20
0.0
 30
0.0
  3
*D3
  1

  0
LINE
  5
235
330
234
100
AcDbEntity
  8
1
  6
Continuous
 62
     2
100
AcDbLine
 10
4756.999298947225
 20
984.0859895201322
 30
0.0
 11
4756.999298947225
 21
1005.535103957018
 31
0.0
  0
LINE
  5
236
330
234
100
AcDbEntity
  8
1
  6
Continuous
 62
     2
100
AcDbLine
 10
4756.999298947225
 20
1022.535103957018
 30
0.0
 11
4756.999298947225
 21
1043.984218393904
 31
0.0
  0
LINE
  5
237
330
234
100
AcDbEntity
  8
1
  6
Continuous
 62
     2
100
AcDbLine
 10
4770.999298947225
 20
984.0859895201322
 30
0.0
 11
4754.999298947225
 21
984.0859895201322
 31
0.0
  0
LINE
  5
238
330
234
100
AcDbEntity
  8
1
  6
Continuous
 62
     2
100
AcDbLine
 10
4770.999298947225
 20
1043.984218393904
 30
0.0
 11
4754.999298947225
 21
1043.984218393904
 31
0.0
  0
SOLID
  5
239
330
234
100
AcDbEntity
  8
1
 62
     2
100
AcDbTrace
 10
4756.2093839617
 20
990.0859895201322
 30
0.0
 11
4757.78921393275
 21
990.0859895201322
 31
0.0
 12
4756.999298947225
 22
984.0859895201322
 32
0.0
 13
4756.999298947225
 23
984.0859895201322
 33
0.0
  0
SOLID
  5
23A
330
234
100
AcDbEntity
  8
1
 62
     2
100
AcDbTrace
 10
4757.78921393275
 20
1037.984218393904
 30
0.0
 11
4756.2093839617
 21
1037.984218393904
 31
0.0
 12
4756.999298947225
 22
1043.984218393904
 32
0.0
 13
4756.999298947225
 23
1043.984218393904
 33
0.0
  0
MTEXT
  5
23B
330
234
100
AcDbEntity
  8
1
 62
     4
100
AcDbMText
 10
4759.999298947225
 20
1009.535103957018
 30
0.0
 40
6.0
 41
0.0
 71
     7
 72
     1
  1
60
  7
CONVERTER_15
 11
0.0
 21
1.0
 31
0.0
 73
     1
 44
0.60024009603842
  0
ENDBLK
  5
23D
330
234
100
AcDbEntity
  8
0
100
AcDbBlockEnd
  0
BLOCK
  5
248
330
240
100
AcDbEntity
  8
0
100
AcDbBlockBegin
  2
*D4
 70
     1
 10
0.0
 20
0.0
 30
0.0
  3
*D4
  1

  0
LINE
  5
241
330
240
100
AcDbEntity
  8
1
  6
Continuous
 62
     2
100
AcDbLine
 10
4722.101137890501
 20
866.445021219625
 30
0.0
 11
4722.101137890501
 21
854.445021219625
 31
0.0
  0
LINE
  5
242
330
240
100
AcDbEntity
  8
1
  6
Continuous
 62
     2
100
AcDbLine
 10
4722.101137890501
 20
892.9450184306645
 30
0.0
 11
4722.101137890501
 21
904.9450184306645
 31
0.0
  0
LINE
  5
243
330
240
100
AcDbEntity
  8
1
  6
Continuous
 62
     2
100
AcDbLine
 10
4678.95992106214
 20
866.445021219625
 30
0.0
 11
4724.101137890501
 21
866.445021219625
 31
0.0
  0
LINE
  5
244
330
240
100
AcDbEntity
  8
1
  6
Continuous
 62
     2
100
AcDbLine
 10
4679.177051715342
 20
892.9450184306645
 30
0.0
 11
4724.101137890501
 21
892.9450184306645
 31
0.0
  0
SOLID
  5
245
330
240
100
AcDbEntity
  8
1
 62
     2
100
AcDbTrace
 10
4722.891052876026
 20
860.445021219625
 30
0.0
 11
4721.311222904977
 21
860.445021219625
 31
0.0
 12
4722.101137890501
 22
866.445021219625
 32
0.0
 13
4722.101137890501
 23
866.445021219625
 33
0.0
  0
SOLID
  5
246
330
240
100
AcDbEntity
  8
1
 62
     2
100
AcDbTrace
 10
4721.311222904977
 20
898.9450184306645
 30
0.0
 11
4722.891052876026
 21
898.9450184306645
 31
0.0
 12
4722.101137890501
 22
892.9450184306645
 32
0.0
 13
4722.101137890501
 23
892.9450184306645
 33
0.0
  0
MTEXT
  5
247
330
240
100
AcDbEntity
  8
1
 62
     4
100
AcDbMText
 10
4725.101137890501
 20
875.1950198251448
 30
0.0
 40
6.0
 41
0.0
 71
     7
 72
     1
  1
27
  7
CONVERTER_15
 11
0.0
 21
1.0
 31
0.0
 73
     1
 44
0.60024009603842
  0
ENDBLK
  5
249
330
240
100
AcDbEntity
  8
0
100
AcDbBlockEnd
  0
ENDSEC
  0
SECTION
  2
ENTITIES
  0
INSERT
  5
6F
330
1F
100
AcDbEntity
  8
0
100
AcDbBlockReference
  2
Ränder_Ilme_Rahmen_A4_quer
 10
4347.999298947225
 20
718.69250149546
 30
0.0
  0
LINE
  5
77
330
1F
100
AcDbEntity
  8
0
  6
Continuous
 62
     7
100
AcDbLine
 10
4530.791598924404
 20
885.9450184306645
 30
0.0
 11
4513.791598924404
 21
885.9450184306645
 31
0.0
  0
LINE
  5
78
330
1F
100
AcDbEntity
  8
0
  6
Continuous
 62
     2
100
AcDbLine
 10
4544.434074747357
 20
991.7971398008756
 30
0.0
 11
4543.926946919727
 21
991.290011576728
 31
0.0
  0
LINE
  5
79
330
1F
100
AcDbEntity
  8
0
  6
Continuous
 62
     2
100
AcDbLine
 10
4681.505491305999
 20
997.7860519510505
 30
0.0
 11
4681.505491305996
 21
1030.284155962993
 31
0.0
  0
LINE
  5
7A
330
1F
100
AcDbEntity
  8
0
  6
Continuous
 62
     7
100
AcDbLine
 10
4540.774946132943
 20
984.0859895201357
 30
0.0
 11
4699.010805628313
 21
984.0859895201359
 31
0.0
  0
LINE
  5
7B
330
1F
100
AcDbEntity
  8
0
  6
Continuous
 62
     2
100
AcDbLine
 10
4674.502322454159
 20
991.7971400516416
 30
0.0
 11
4675.009450960582
 21
991.2900115452294
 31
0.0
  0
LINE
  5
7C
330
1F
100
AcDbEntity
  8
0
  6
Continuous
 62
     2
100
AcDbLine
 10
4680.97612900971
 20
998.3154142473384
 30
0.0
 11
4681.505491305999
 21
997.7860519510505
 31
0.0
  0
LINE
  5
7D
330
1F
100
AcDbEntity
  8
0
  6
Continuous
 62
     2
100
AcDbLine
 10
4540.774946132943
 20
985.0859895201357
 30
0.0
 11
4699.010805628313
 21
985.0859895201359
 31
0.0
  0
LINE
  5
7E
330
1F
100
AcDbEntity
  8
0
  6
Continuous
 62
     2
100
AcDbLine
 10
4706.009513359752
 20
992.0846972515756
 30
0.0
 11
4707.009513359752
 21
992.0846972515756
 31
0.0
  0
LINE
  5
7F
330
1F
100
AcDbEntity
  8
0
  6
Continuous
 62
     2
100
AcDbLine
 10
4706.009513359752
 20
997.4942017966346
 30
0.0
 11
4707.009513359752
 21
997.4942017966346
 31
0.0
  0
LINE
  5
80
330
1F
100
AcDbEntity
  8
0
  6
Continuous
 62
     2
100
AcDbLine
 10
4706.009513359752
 20
992.0846972515756
 30
0.0
 11
4706.009513359752
 21
997.4942017966346
 31
0.0
  0
LINE
  5
81
330
1F
100
AcDbEntity
  8
0
  6
Continuous
 62
     7
100
AcDbLine
 10
4707.009513359752
 20
992.0846972515756
 30
0.0
 11
4707.009513359752
 21
997.4942017966346
 31
0.0
  0
LINE
  5
82
330
1F
100
AcDbEntity
  8
0
  6
Continuous
 62
     7
100
AcDbLine
 10
4695.157790605635
 20
1005.492909796635
 30
0.0
 11
4699.010805359751
 21
1005.492909796635
 31
0.0
  0
LINE
  5
83
330
1F
100
AcDbEntity
  8
0
  6
Continuous
 62
     2
100
AcDbLine
 10
4695.157790605635
 20
1004.492909796635
 30
0.0
 11
4699.010805359751
 21
1004.492909796635
 31
0.0
  0
LINE
  5
84
330
1F
100
AcDbEntity
  8
0
  6
Continuous
 62
     2
100
AcDbLine
 10
4699.010805628313
 20
985.0859895201359
 30
0.0
 11
4699.010805628313
 21
984.0859895201359
 31
0.0
  0
LINE
  5
85
330
1F
100
AcDbEntity
  8
0
  6
Continuous
 62
     2
100
AcDbLine
 10
4699.010805359751
 20
1004.492909796635
 30
0.0
 11
4699.010805359751
 21
1005.492909796635
 31
0.0
  0
LINE
  5
86
330
1F
100
AcDbEntity
  8
0
  6
Continuous
 62
     2
100
AcDbLine
 10
4695.157790605635
 20
1004.492909796635
 30
0.0
 11
4695.157790605635
 21
1005.492909796635
 31
0.0
  0
LINE
  5
87
330
1F
100
AcDbEntity
  8
0
  6
Continuous
 62
     2
100
AcDbLine
 10
4677.944321023586
 20
1010.635103957077
 30
0.0
 11
4677.944321022539
 21
1017.435103956969
 31
0.0
  0
LINE
  5
88
330
1F
100
AcDbEntity
  8
0
  6
Continuous
 62
     2
100
AcDbLine
 10
4540.992076825212
 20
1017.435103956969
 30
0.0
 11
4540.992076826259
 21
1010.635103957077
 31
0.0
  0
LINE
  5
89
330
1F
100
AcDbEntity
  8
0
  6
Continuous
 62
     7
100
AcDbLine
 10
4689.159513360274
 20
1032.986156748975
 30
0.0
 11
4689.159513360274
 21
1011.491187041995
 31
0.0
  0
LINE
  5
8A
330
1F
100
AcDbEntity
  8
0
  6
Continuous
 62
     2
100
AcDbLine
 10
4688.159513360274
 20
1032.986156748975
 30
0.0
 11
4688.159513360274
 21
1011.491187041995
 31
0.0
  0
LINE
  5
8B
330
1F
100
AcDbEntity
  8
0
  6
Continuous
 62
     2
100
AcDbLine
 10
4680.9424935295
 20
1010.634835571231
 30
0.0
 11
4680.94249410057
 21
1017.435400125049
 31
0.0
  0
LINE
  5
8C
330
1F
100
AcDbEntity
  8
0
  6
Continuous
 62
     7
100
AcDbLine
 10
4678.161451715342
 20
1043.984218393908
 30
0.0
 11
4519.925592219449
 21
1043.984218393908
 31
0.0
  0
LINE
  5
8D
330
1F
100
AcDbEntity
  8
0
  6
Continuous
 62
     2
100
AcDbLine
 10
4512.92688448801
 20
1030.575981865618
 30
0.0
 11
4511.92688448801
 21
1030.575981865618
 31
0.0
  0
LINE
  5
8E
330
1F
100
AcDbEntity
  8
0
  6
Continuous
 62
     2
100
AcDbLine
 10
4512.92688448801
 20
1035.985510662469
 30
0.0
 11
4511.92688448801
 21
1035.985510662469
 31
0.0
  0
LINE
  5
8F
330
1F
100
AcDbEntity
  8
0
  6
Continuous
 62
     2
100
AcDbLine
 10
4544.434075298757
 20
1033.875636774809
 30
0.0
 11
4674.501400931048
 21
1033.875632611765
 31
0.0
  0
LINE
  5
90
330
1F
100
AcDbEntity
  8
0
  6
Continuous
 62
     2
100
AcDbLine
 10
4678.161451715342
 20
1042.984218393908
 30
0.0
 11
4519.925592219449
 21
1042.984218393908
 31
0.0
  0
LINE
  5
91
330
1F
100
AcDbEntity
  8
0
  6
Continuous
 62
     2
100
AcDbLine
 10
4544.434075399327
 20
1036.27306785403
 30
0.0
 11
4674.502322704338
 21
1036.273068112585
 31
0.0
  0
LINE
  5
92
330
1F
100
AcDbEntity
  8
0
  6
Continuous
 62
     2
100
AcDbLine
 10
4675.009451326342
 20
1036.780196336835
 30
0.0
 11
4671.025492924402
 21
1036.780196337641
 31
0.0
  0
LINE
  5
93
330
1F
100
AcDbEntity
  8
0
  6
Continuous
 62
     2
100
AcDbLine
 10
4671.025492924402
 20
1036.780196337641
 30
0.0
 11
4543.926946918426
 21
1036.780196338617
 31
0.0
  0
LINE
  5
94
330
1F
100
AcDbEntity
  8
0
  6
Continuous
 62
     2
100
AcDbLine
 10
4675.009456686798
 20
1037.279889976625
 30
0.0
 11
4671.025492924403
 21
1037.279890961227
 31
0.0
  0
LINE
  5
95
330
1F
100
AcDbEntity
  8
0
  6
Continuous
 62
     2
100
AcDbLine
 10
4671.025492924403
 20
1037.279890961227
 30
0.0
 11
4543.926945983931
 21
1037.279891956892
 31
0.0
  0
LINE
  5
96
330
1F
100
AcDbEntity
  8
0
  6
Continuous
 62
     2
100
AcDbLine
 10
4674.502322704338
 20
1036.273068112585
 30
0.0
 11
4675.009451326342
 21
1036.780196336835
 31
0.0
  0
LINE
  5
97
330
1F
100
AcDbEntity
  8
0
  6
Continuous
 62
     2
100
AcDbLine
 10
4680.976129154208
 20
1029.754793811205
 30
0.0
 11
4681.505491305996
 21
1030.284155962993
 31
0.0
  0
LINE
  5
98
330
1F
100
AcDbEntity
  8
0
  6
Continuous
 62
     2
100
AcDbLine
 10
4512.92688448801
 20
1035.985510662469
 30
0.0
 11
4512.92688448801
 21
1030.575981865618
 31
0.0
  0
LINE
  5
99
330
1F
100
AcDbEntity
  8
0
  6
Continuous
 62
     7
100
AcDbLine
 10
4511.92688448801
 20
1035.985510662469
 30
0.0
 11
4511.92688448801
 21
1030.575981865618
 31
0.0
  0
LINE
  5
9A
330
1F
100
AcDbEntity
  8
0
  6
Continuous
 62
     2
100
AcDbLine
 10
4530.776884488009
 20
1016.578996888817
 30
0.0
 11
4529.776884488009
 21
1016.578996888817
 31
0.0
  0
LINE
  5
9B
330
1F
100
AcDbEntity
  8
0
  6
Continuous
 62
     2
100
AcDbLine
 10
4544.434075399327
 20
1036.27306785403
 30
0.0
 11
4543.926946918426
 21
1036.780196338617
 31
0.0
  0
LINE
  5
9C
330
1F
100
AcDbEntity
  8
0
  6
Continuous
 62
     2
100
AcDbLine
 10
4536.931212567733
 20
1030.28416110941
 30
0.0
 11
4536.931210963453
 21
997.7860511940362
 31
0.0
  0
LINE
  5
9D
330
1F
100
AcDbEntity
  8
0
  6
Continuous
 62
     2
100
AcDbLine
 10
4519.925592219449
 20
1042.984218393908
 30
0.0
 11
4519.925592219449
 21
1043.984218393908
 31
0.0
  0
LINE
  5
9E
330
1F
100
AcDbEntity
  8
0
  6
Continuous
 62
     2
100
AcDbLine
 10
4519.925592219449
 20
1023.577274134179
 30
0.0
 11
4519.925592219449
 21
1022.577274134179
 31
0.0
  0
LINE
  5
9F
330
1F
100
AcDbEntity
  8
0
  6
Continuous
 62
     7
100
AcDbLine
 10
4529.776884488009
 20
1016.578996888817
 30
0.0
 11
4529.776884488009
 21
995.0840511650689
 31
0.0
  0
LINE
  5
A0
330
1F
100
AcDbEntity
  8
0
  6
Continuous
 62
     7
100
AcDbLine
 10
4519.925592219449
 20
1022.577274134179
 30
0.0
 11
4523.778607242649
 21
1022.577274134179
 31
0.0
  0
LINE
  5
A1
330
1F
100
AcDbEntity
  8
0
  6
Continuous
 62
     2
100
AcDbLine
 10
4523.778607242649
 20
1023.577274134179
 30
0.0
 11
4523.778607242649
 21
1022.577274134179
 31
0.0
  0
LINE
  5
A2
330
1F
100
AcDbEntity
  8
0
  6
Continuous
 62
     2
100
AcDbLine
 10
4519.925592219449
 20
1023.577274134179
 30
0.0
 11
4523.778607242649
 21
1023.577274134179
 31
0.0
  0
LINE
  5
A3
330
1F
100
AcDbEntity
  8
0
  6
Continuous
 62
     2
100
AcDbLine
 10
4537.960268840851
 20
1029.754794061997
 30
0.0
 11
4537.430905980068
 21
1030.28415547869
 31
0.0
  0
LINE
  5
A4
330
1F
100
AcDbEntity
  8
0
  6
Continuous
 62
     2
100
AcDbLine
 10
4537.430905980068
 20
1030.28415547869
 30
0.0
 11
4537.430906542802
 21
997.7860519510532
 31
0.0
  0
LINE
  5
A5
330
1F
100
AcDbEntity
  8
0
  6
Continuous
 62
     2
100
AcDbLine
 10
4537.960268694225
 20
998.3154141024764
 30
0.0
 11
4537.430906542802
 21
997.7860519510532
 31
0.0
  0
LINE
  5
A6
330
1F
100
AcDbEntity
  8
0
  6
Continuous
 62
     2
100
AcDbLine
 10
4530.776884488009
 20
1016.578996888817
 30
0.0
 11
4530.776884488009
 21
995.0840511650689
 31
0.0
  0
LINE
  5
A7
330
1F
100
AcDbEntity
  8
0
  6
Continuous
 62
     2
100
AcDbLine
 10
4540.774946132943
 20
985.0859895201357
 30
0.0
 11
4540.774946132943
 21
984.0859895201357
 31
0.0
  0
LINE
  5
A8
330
1F
100
AcDbEntity
  8
0
  6
Continuous
 62
     2
100
AcDbLine
 10
4537.993904319298
 20
1017.435372342729
 30
0.0
 11
4537.993904334858
 21
1010.634835578231
 31
0.0
  0
LINE
  5
A9
330
1F
100
AcDbEntity
  8
0
  6
Continuous
 62
     2
100
AcDbLine
 10
4544.434074747357
 20
991.7971398008756
 30
0.0
 11
4674.502322454159
 21
991.7971400516416
 31
0.0
  0
LINE
  5
AA
330
1F
100
AcDbEntity
  8
0
  6
Continuous
 62
     2
100
AcDbLine
 10
4675.009457283009
 20
990.7903179374281
 30
0.0
 11
4543.926941161998
 21
990.7903179374208
 31
0.0
  0
LINE
  5
AB
330
1F
100
AcDbEntity
  8
0
  6
Continuous
 62
     2
100
AcDbLine
 10
4675.009450960582
 20
991.2900115452294
 30
0.0
 11
4543.926946919727
 21
991.290011576728
 31
0.0
  0
LINE
  5
AC
330
1F
100
AcDbEntity
  8
0
  6
Continuous
 62
     2
100
AcDbLine
 10
4530.776884488009
 20
995.0840511650689
 30
0.0
 11
4529.776884488009
 21
995.0840511650689
 31
0.0
  0
LINE
  5
AD
330
1F
100
AcDbEntity
  8
0
  6
Continuous
 62
     2
100
AcDbLine
 10
4544.434996669678
 20
994.1945753355711
 30
0.0
 11
4674.502346089585
 21
994.1945711749138
 31
0.0
  0
LINE
  5
AE
330
1F
100
AcDbEntity
  8
0
  6
Continuous
 62
     2
100
AcDbLine
 10
4688.159513360274
 20
1032.986156748975
 30
0.0
 11
4689.159513360274
 21
1032.986156748975
 31
0.0
  0
LINE
  5
AF
330
1F
100
AcDbEntity
  8
0
  6
Continuous
 62
     2
100
AcDbLine
 10
4678.161451715342
 20
1042.984218393908
 30
0.0
 11
4678.161451715342
 21
1043.984218393908
 31
0.0
  0
LINE
  5
B0
330
1F
100
AcDbEntity
  8
0
  6
Continuous
 62
     2
100
AcDbLine
 10
4689.159513360274
 20
1011.491187041995
 30
0.0
 11
4688.159513360274
 21
1011.491187041995
 31
0.0
  0
LINE
  5
B1
330
1F
100
AcDbEntity
  8
0
  6
Continuous
 62
     2
100
AcDbLine
 10
4682.005186885344
 20
997.7860511940312
 30
0.0
 11
4682.005186900215
 21
1030.284206883994
 31
0.0
  0
LINE
  5
B2
330
1F
100
AcDbEntity
  8
0
  6
Continuous
 62
     7
100
AcDbLine
 10
4524.363852678409
 20
880.9450184306644
 30
0.0
 11
4514.791598924404
 21
880.9450184306644
 31
0.0
  0
LINE
  5
B3
330
1F
100
AcDbEntity
  8
0
  6
Continuous
 62
     7
100
AcDbLine
 10
4530.791598924404
 20
885.9450184306645
 30
0.0
 11
4530.791598924404
 21
881.9450184306645
 31
0.0
  0
LINE
  5
B4
330
1F
100
AcDbEntity
  8
0
  6
Continuous
 62
     2
100
AcDbLine
 10
4530.791598924404
 20
881.9450184306645
 30
0.0
 11
4513.791598924404
 21
881.9450184306645
 31
0.0
  0
LINE
  5
B5
330
1F
100
AcDbEntity
  8
0
  6
Continuous
 62
     7
100
AcDbLine
 10
4513.791598924404
 20
885.9450184306645
 30
0.0
 11
4513.791598924404
 21
881.9450184306645
 31
0.0
  0
LINE
  5
B6
330
1F
100
AcDbEntity
  8
0
  6
Continuous
 62
     7
100
AcDbLine
 10
4513.791598924404
 20
885.9450184306645
 30
0.0
 11
4512.942484488011
 21
885.9450184306645
 31
0.0
  0
LINE
  5
B7
330
1F
100
AcDbEntity
  8
0
  6
Continuous
 62
     7
100
AcDbLine
 10
4511.942484488011
 20
886.9450184306645
 30
0.0
 11
4511.942484488011
 21
888.6229217072976
 31
0.0
  0
LINE
  5
B8
330
1F
100
AcDbEntity
  8
0
  6
Continuous
 62
     7
100
AcDbLine
 10
4519.941192219449
 20
892.9450184306645
 30
0.0
 11
4511.942484488011
 21
892.9450184306645
 31
0.0
  0
LINE
  5
B9
330
1F
100
AcDbEntity
  8
0
  6
Continuous
 62
     7
100
AcDbLine
 10
4511.942484488011
 20
892.9450184306645
 30
0.0
 11
4511.942484488011
 21
888.6229217072976
 31
0.0
  0
LINE
  5
BA
330
1F
100
AcDbEntity
  8
0
  6
Continuous
 62
     7
100
AcDbLine
 10
4678.177051715341
 20
892.9450184306645
 30
0.0
 11
4519.941192219449
 21
892.9450184306645
 31
0.0
  0
LINE
  5
BB
330
1F
100
AcDbEntity
  8
0
  6
Continuous
 62
     2
100
AcDbLine
 10
4519.941192219449
 20
889.1341783298978
 30
0.0
 11
4519.94119222306
 21
886.9450184306645
 31
0.0
  0
LINE
  5
BC
330
1F
100
AcDbEntity
  8
0
  6
Continuous
 62
     2
100
AcDbLine
 10
4519.941192219449
 20
892.9450184306645
 30
0.0
 11
4519.941192219449
 21
889.1341783298978
 31
0.0
  0
LINE
  5
BD
330
1F
100
AcDbEntity
  8
0
  6
Continuous
 62
     2
100
AcDbLine
 10
4678.177051715341
 20
886.9450184306645
 30
0.0
 11
4511.942484488011
 21
886.9450184306645
 31
0.0
  0
LINE
  5
BE
330
1F
100
AcDbEntity
  8
0
  6
Continuous
 62
     7
100
AcDbLine
 10
4543.942545983929
 20
885.9450184306736
 30
0.0
 11
4536.946812567729
 21
885.9450184306645
 31
0.0
  0
LINE
  5
BF
330
1F
100
AcDbEntity
  8
0
  6
Continuous
 62
     7
100
AcDbLine
 10
4536.946812567729
 20
885.9450184306645
 30
0.0
 11
4530.791598924404
 21
885.9450184306645
 31
0.0
  0
LINE
  5
C0
330
1F
100
AcDbEntity
  8
0
  6
Continuous
 62
     2
100
AcDbLine
 10
4675.025050332893
 20
885.4624681247784
 30
0.0
 11
4671.041092924403
 21
885.462468158237
 31
0.0
  0
LINE
  5
C1
330
1F
100
AcDbEntity
  8
0
  6
Continuous
 62
     2
100
AcDbLine
 10
4671.041092924403
 20
885.462468158237
 30
0.0
 11
4543.94254684879
 21
885.4624682209655
 31
0.0
  0
LINE
  5
C2
330
1F
100
AcDbEntity
  8
0
  6
Continuous
 62
     7
100
AcDbLine
 10
4675.025057282976
 20
885.9450184306578
 30
0.0
 11
4543.942545983929
 21
885.9450184306736
 31
0.0
  0
LINE
  5
C3
330
1F
100
AcDbEntity
  8
0
  6
Continuous
 62
     7
100
AcDbLine
 10
4541.00767691823
 20
866.4450184474366
 30
0.0
 11
4677.959921062139
 21
866.4450212196249
 31
0.0
  0
LINE
  5
C4
330
1F
100
AcDbEntity
  8
0
  6
Continuous
 62
     7
100
AcDbLine
 10
4529.791598924404
 20
880.9450184306644
 30
0.0
 11
4524.363852678409
 21
880.9450184306644
 31
0.0
  0
LINE
  5
C5
330
1F
100
AcDbEntity
  8
0
  6
Continuous
 62
     2
100
AcDbLine
 10
4544.449675298757
 20
868.1057029793224
 30
0.0
 11
4674.517000931047
 21
868.1057021285013
 31
0.0
  0
LINE
  5
C6
330
1F
100
AcDbEntity
  8
0
  6
Continuous
 62
     2
100
AcDbLine
 10
4674.517923100369
 20
870.9402158446715
 30
0.0
 11
4675.025050332893
 21
885.4624681247784
 31
0.0
  0
LINE
  5
C7
330
1F
100
AcDbEntity
  8
0
  6
Continuous
 62
     7
100
AcDbLine
 10
4538.009504319297
 20
869.3403212607576
 30
0.0
 11
4537.975868840368
 21
870.303515354649
 31
0.0
  0
LINE
  5
C8
330
1F
100
AcDbEntity
  8
0
  6
Continuous
 62
     7
100
AcDbLine
 10
4704.175998923717
 20
880.9450184306645
 30
0.0
 11
4698.338655138518
 21
880.9450184306645
 31
0.0
  0
LINE
  5
C9
330
1F
100
AcDbEntity
  8
0
  6
Continuous
 62
     7
100
AcDbLine
 10
4706.025113359753
 20
885.9450184306645
 30
0.0
 11
4705.175998923717
 21
885.9450184306645
 31
0.0
  0
LINE
  5
CA
330
1F
100
AcDbEntity
  8
0
  6
Continuous
 62
     7
100
AcDbLine
 10
4705.175998923717
 20
885.9450184306645
 30
0.0
 11
4705.175998923717
 21
881.9450184306645
 31
0.0
  0
LINE
  5
CB
330
1F
100
AcDbEntity
  8
0
  6
Continuous
 62
     7
100
AcDbLine
 10
4698.834557148681
 20
886.9450184306645
 30
0.0
 11
4699.026405624937
 21
886.9450184306645
 31
0.0
  0
LINE
  5
CC
330
1F
100
AcDbEntity
  8
0
  6
Continuous
 62
     7
100
AcDbLine
 10
4695.173390605634
 20
892.9450184306645
 30
0.0
 11
4699.026405359752
 21
892.9450184306645
 31
0.0
  0
LINE
  5
CD
330
1F
100
AcDbEntity
  8
0
  6
Continuous
 62
     2
100
AcDbLine
 10
4699.026405359752
 20
892.9450184306645
 30
0.0
 11
4699.026405359752
 21
887.2054054197088
 31
0.0
  0
LINE
  5
CE
330
1F
100
AcDbEntity
  8
0
  6
Continuous
 62
     2
100
AcDbLine
 10
4695.173390605634
 20
886.9450184306645
 30
0.0
 11
4707.025113359753
 21
886.9450184306645
 31
0.0
  0
LINE
  5
CF
330
1F
100
AcDbEntity
  8
0
  6
Continuous
 62
     2
100
AcDbLine
 10
4699.026405359752
 20
887.2054054197088
 30
0.0
 11
4699.026405624937
 21
886.9450184306645
 31
0.0
  0
LINE
  5
D0
330
1F
100
AcDbEntity
  8
0
  6
Continuous
 62
     2
100
AcDbLine
 10
4692.675998923717
 20
881.9450184306645
 30
0.0
 11
4688.175998923717
 21
881.9450184306645
 31
0.0
  0
LINE
  5
D1
330
1F
100
AcDbEntity
  8
0
  6
Continuous
 62
     7
100
AcDbLine
 10
4688.175113360274
 20
885.9450184306645
 30
0.0
 11
4688.175998923717
 21
881.9450184306645
 31
0.0
  0
LINE
  5
D2
330
1F
100
AcDbEntity
  8
0
  6
Continuous
 62
     2
100
AcDbLine
 10
4695.173390605634
 20
885.9450184306645
 30
0.0
 11
4695.173390605634
 21
886.9450184306645
 31
0.0
  0
LINE
  5
D3
330
1F
100
AcDbEntity
  8
0
  6
Continuous
 62
     2
100
AcDbLine
 10
4695.173390605634
 20
886.9450184306645
 30
0.0
 11
4695.173390605634
 21
892.9450184306645
 31
0.0
  0
LINE
  5
D4
330
1F
100
AcDbEntity
  8
0
  6
Continuous
 62
     7
100
AcDbLine
 10
4695.173390605634
 20
892.9450184306645
 30
0.0
 11
4689.175113360274
 21
892.9450184306645
 31
0.0
  0
LINE
  5
D5
330
1F
100
AcDbEntity
  8
0
  6
Continuous
 62
     2
100
AcDbLine
 10
4695.173390605634
 20
886.9450184306645
 30
0.0
 11
4689.175113360274
 21
886.9450184306645
 31
0.0
  0
LINE
  5
D6
330
1F
100
AcDbEntity
  8
0
  6
Continuous
 62
     2
100
AcDbLine
 10
4705.175998923717
 20
881.945018430656
 30
0.0
 11
4692.675998923717
 21
881.9450184306645
 31
0.0
  0
LINE
  5
D7
330
1F
100
AcDbEntity
  8
0
  6
Continuous
 62
     7
100
AcDbLine
 10
4693.146587159012
 20
880.9450184306645
 30
0.0
 11
4689.175998923717
 21
880.9450184306645
 31
0.0
  0
LINE
  5
D8
330
1F
100
AcDbEntity
  8
0
  6
Continuous
 62
     7
100
AcDbLine
 10
4695.173390605634
 20
885.9450184306645
 30
0.0
 11
4705.175998923717
 21
885.9450184306645
 31
0.0
  0
LINE
  5
D9
330
1F
100
AcDbEntity
  8
0
  6
Continuous
 62
     7
100
AcDbLine
 10
4698.338655138518
 20
880.9450184306645
 30
0.0
 11
4693.146587159012
 21
880.9450184306645
 31
0.0
  0
LINE
  5
DA
330
1F
100
AcDbEntity
  8
0
  6
Continuous
 62
     7
100
AcDbLine
 10
4689.175113360274
 20
892.9450184306645
 30
0.0
 11
4678.177051715341
 21
892.9450184306645
 31
0.0
  0
LINE
  5
DB
330
1F
100
AcDbEntity
  8
0
  6
Continuous
 62
     2
100
AcDbLine
 10
4678.177051715341
 20
892.9450184306645
 30
0.0
 11
4678.177051715341
 21
886.9450184306645
 31
0.0
  0
LINE
  5
DC
330
1F
100
AcDbEntity
  8
0
  6
Continuous
 62
     7
100
AcDbLine
 10
4689.175113360274
 20
892.9450184306645
 30
0.0
 11
4689.175113360274
 21
886.9450184306645
 31
0.0
  0
LINE
  5
DD
330
1F
100
AcDbEntity
  8
0
  6
Continuous
 62
     2
100
AcDbLine
 10
4689.175113360274
 20
886.9450184306645
 30
0.0
 11
4678.177051715341
 21
886.9450184306645
 31
0.0
  0
LINE
  5
DE
330
1F
100
AcDbEntity
  8
0
  6
Continuous
 62
     7
100
AcDbLine
 10
4688.175113360274
 20
885.9450184306645
 30
0.0
 11
4682.020786885344
 21
885.9450184306645
 31
0.0
  0
LINE
  5
DF
330
1F
100
AcDbEntity
  8
0
  6
Continuous
 62
     7
100
AcDbLine
 10
4682.020786885344
 20
885.9450184306645
 30
0.0
 11
4678.177051715341
 21
885.9450184306645
 31
0.0
  0
LINE
  5
E0
330
1F
100
AcDbEntity
  8
0
  6
Continuous
 62
     2
100
AcDbLine
 10
4678.177051715341
 20
885.9450184306645
 30
0.0
 11
4678.177051715341
 21
886.9450184306645
 31
0.0
  0
LINE
  5
E1
330
1F
100
AcDbEntity
  8
0
  6
Continuous
 62
     7
100
AcDbLine
 10
4678.177051715341
 20
885.9450184306645
 30
0.0
 11
4675.025057282976
 21
885.9450184306578
 31
0.0
  0
LINE
  5
E2
330
1F
100
AcDbEntity
  8
0
  6
Continuous
 62
     7
100
AcDbLine
 10
4695.173390605634
 20
885.9450184306645
 30
0.0
 11
4688.175113360274
 21
885.9450184306645
 31
0.0
  0
LINE
  5
E3
330
1F
100
AcDbEntity
  8
0
  6
Continuous
 62
     2
100
AcDbLine
 10
4544.449675399327
 20
870.9402084545859
 30
0.0
 11
4674.517923100369
 21
870.9402158446715
 31
0.0
  0
LINE
  5
E4
330
1F
100
AcDbEntity
  8
0
  6
Continuous
 62
     2
100
AcDbLine
 10
4544.449675399327
 20
870.9402084545859
 30
0.0
 11
4543.94254684879
 21
885.4624682209655
 31
0.0
  0
LINE
  5
E5
330
1F
100
AcDbEntity
  8
0
  6
Continuous
 62
     7
100
AcDbLine
 10
4537.975868840368
 20
870.303515354649
 30
0.0
 11
4537.446466902455
 21
885.463603337218
 31
0.0
  0
LINE
  5
E6
330
1F
100
AcDbEntity
  8
0
  6
Continuous
 62
     7
100
AcDbLine
 10
4707.025113359753
 20
892.9450184306645
 30
0.0
 11
4707.025113359753
 21
888.5507733475436
 31
0.0
  0
LINE
  5
E7
330
1F
100
AcDbEntity
  8
0
  6
Continuous
 62
     7
100
AcDbLine
 10
4680.991729154208
 20
870.3035195292154
 30
0.0
 11
4680.958093529502
 21
869.3403212607941
 31
0.0
  0
LINE
  5
E8
330
1F
100
AcDbEntity
  8
0
  6
Continuous
 62
     7
100
AcDbLine
 10
4680.991729154208
 20
870.3035195292154
 30
0.0
 11
4681.521091307213
 21
885.4624682210622
 31
0.0
  0
LINE
  5
E9
330
1F
100
AcDbEntity
  8
0
  6
Continuous
 62
     7
100
AcDbLine
 10
4707.025113359753
 20
888.5507733475436
 30
0.0
 11
4707.025113359753
 21
886.9450184306645
 31
0.0
  0
LINE
  5
EA
330
1F
100
AcDbEntity
  8
0
  6
Continuous
 62
     7
100
AcDbLine
 10
4707.025113359753
 20
892.9450184306645
 30
0.0
 11
4699.026405359752
 21
892.9450184306645
 31
0.0
  0
LINE
  5
EB
330
1F
100
AcDbEntity
  8
0
  6
Continuous
 62
     7
100
AcDbLine
 10
4771.999298947225
 20
984.0859895201316
 30
0.0
 11
4771.999298947225
 21
995.0840511650647
 31
0.0
  0
LINE
  5
EC
330
1F
100
AcDbEntity
  8
0
  6
Continuous
 62
     7
100
AcDbLine
 10
4771.999298947225
 20
1030.575981865614
 30
0.0
 11
4771.999298947225
 21
1022.577274134174
 31
0.0
  0
LINE
  5
ED
330
1F
100
AcDbEntity
  8
0
  6
Continuous
 62
     7
100
AcDbLine
 10
4771.999298947225
 20
1035.985510662465
 30
0.0
 11
4771.999298947225
 21
1030.575981865614
 31
0.0
  0
LINE
  5
EE
330
1F
100
AcDbEntity
  8
0
  6
Continuous
 62
     7
100
AcDbLine
 10
4771.999298947225
 20
1016.578996888813
 30
0.0
 11
4771.999298947225
 21
995.0840511650647
 31
0.0
  0
LINE
  5
EF
330
1F
100
AcDbEntity
  8
0
  6
Continuous
 62
     7
100
AcDbLine
 10
4798.499296158264
 20
1017.435103956965
 30
0.0
 11
4798.499296158264
 21
1010.635103957073
 31
0.0
  0
LINE
  5
F0
330
1F
100
AcDbEntity
  8
0
  6
Continuous
 62
     7
100
AcDbLine
 10
4777.999298947225
 20
984.0859895201316
 30
0.0
 11
4771.999298947225
 21
984.0859895201316
 31
0.0
  0
LINE
  5
F1
330
1F
100
AcDbEntity
  8
0
  6
Continuous
 62
     7
100
AcDbLine
 10
4794.004101488572
 20
991.7971398003848
 30
0.0
 11
4779.4818492289
 21
991.2900115767239
 31
0.0
  0
LINE
  5
F2
330
1F
100
AcDbEntity
  8
0
  6
Continuous
 62
     7
100
AcDbLine
 10
4783.999298947225
 20
1037.283024216974
 30
0.0
 11
4783.999298947225
 21
1026.185103957017
 31
0.0
  0
LINE
  5
F3
330
1F
100
AcDbEntity
  8
0
  6
Continuous
 62
     2
100
AcDbLine
 10
4782.999298947225
 20
1037.762746918301
 30
0.0
 11
4782.999298947225
 21
1025.185103957017
 31
0.0
  0
LINE
  5
F4
330
1F
100
AcDbEntity
  8
0
  6
Continuous
 62
     7
100
AcDbLine
 10
4778.999298947225
 20
1042.185103957017
 30
0.0
 11
4782.999298947225
 21
1042.185103957017
 31
0.0
  0
LINE
  5
F5
330
1F
100
AcDbEntity
  8
0
  6
Continuous
 62
     2
100
AcDbLine
 10
4782.999298947225
 20
1042.185103957017
 30
0.0
 11
4782.999298947225
 21
1037.762746918301
 31
0.0
  0
LINE
  5
F6
330
1F
100
AcDbEntity
  8
0
  6
Continuous
 62
     7
100
AcDbLine
 10
4783.999298947225
 20
1041.185103957017
 30
0.0
 11
4783.999298947225
 21
1037.283024216974
 31
0.0
  0
LINE
  5
F7
330
1F
100
AcDbEntity
  8
0
  6
Continuous
 62
     7
100
AcDbLine
 10
4778.999298947225
 20
1030.575981865614
 30
0.0
 11
4778.999298947225
 21
1025.185103957017
 31
0.0
  0
LINE
  5
F8
330
1F
100
AcDbEntity
  8
0
  6
Continuous
 62
     2
100
AcDbLine
 10
4778.999298947225
 20
1030.575981865614
 30
0.0
 11
4777.999298947225
 21
1030.575981865614
 31
0.0
  0
LINE
  5
F9
330
1F
100
AcDbEntity
  8
0
  6
Continuous
 62
     2
100
AcDbLine
 10
4771.999298947225
 20
1035.985510662465
 30
0.0
 11
4777.999298947225
 21
1035.985510662465
 31
0.0
  0
LINE
  5
FA
330
1F
100
AcDbEntity
  8
0
  6
Continuous
 62
     7
100
AcDbLine
 10
4778.999298947225
 20
1035.985510662465
 30
0.0
 11
4778.999298947225
 21
1030.575981865614
 31
0.0
  0
LINE
  5
FB
330
1F
100
AcDbEntity
  8
0
  6
Continuous
 62
     7
100
AcDbLine
 10
4794.00410881776
 20
1036.273067857712
 30
0.0
 11
4783.999298947225
 21
1036.622443517009
 31
0.0
  0
LINE
  5
FC
330
1F
100
AcDbEntity
  8
0
  6
Continuous
 62
     2
100
AcDbLine
 10
4794.64079784722
 20
998.3154139689558
 30
0.0
 11
4779.481849191701
 21
997.786051951049
 31
0.0
  0
LINE
  5
FD
330
1F
100
AcDbEntity
  8
0
  6
Continuous
 62
     7
100
AcDbLine
 10
4771.999298947225
 20
1043.984218393904
 30
0.0
 11
4771.999298947225
 21
1035.985510662465
 31
0.0
  0
LINE
  5
FE
330
1F
100
AcDbEntity
  8
0
  6
Continuous
 62
     7
100
AcDbLine
 10
4771.999298947225
 20
1043.984218393904
 30
0.0
 11
4777.999298947225
 21
1043.984218393904
 31
0.0
  0
LINE
  5
FF
330
1F
100
AcDbEntity
  8
0
  6
Continuous
 62
     2
100
AcDbLine
 10
4777.999298947225
 20
1043.984218393904
 30
0.0
 11
4777.999298947225
 21
1035.985510662465
 31
0.0
  0
LINE
  5
100
330
1F
100
AcDbEntity
  8
0
  6
Continuous
 62
     7
100
AcDbLine
 10
4778.999298947225
 20
1025.185103957017
 30
0.0
 11
4778.999298947225
 21
1023.577274134174
 31
0.0
  0
LINE
  5
101
330
1F
100
AcDbEntity
  8
0
  6
Continuous
 62
     7
100
AcDbLine
 10
4778.999298947225
 20
1042.984218393904
 30
0.0
 11
4778.999298947225
 21
1042.185103957017
 31
0.0
  0
LINE
  5
102
330
1F
100
AcDbEntity
  8
0
  6
Continuous
 62
     7
100
AcDbLine
 10
4778.999298947225
 20
1042.185103957017
 30
0.0
 11
4778.999298947225
 21
1035.985510662465
 31
0.0
  0
LINE
  5
103
330
1F
100
AcDbEntity
  8
0
  6
Continuous
 62
     2
100
AcDbLine
 10
4778.999298947225
 20
1016.578996888813
 30
0.0
 11
4777.999298947225
 21
1016.578996888813
 31
0.0
  0
LINE
  5
104
330
1F
100
AcDbEntity
  8
0
  6
Continuous
 62
     2
100
AcDbLine
 10
4778.999298947225
 20
1035.985510662465
 30
0.0
 11
4777.999298947225
 21
1035.985510662465
 31
0.0
  0
LINE
  5
105
330
1F
100
AcDbEntity
  8
0
  6
Continuous
 62
     2
100
AcDbLine
 10
4777.999298947225
 20
1035.985510662465
 30
0.0
 11
4777.999298947225
 21
1030.575981865614
 31
0.0
  0
LINE
  5
106
330
1F
100
AcDbEntity
  8
0
  6
Continuous
 62
     2
100
AcDbLine
 10
4777.999298947225
 20
1030.575981865614
 30
0.0
 11
4777.999298947225
 21
1022.577274134174
 31
0.0
  0
LINE
  5
107
330
1F
100
AcDbEntity
  8
0
  6
Continuous
 62
     2
100
AcDbLine
 10
4777.999298947225
 20
1016.578996888813
 30
0.0
 11
4777.999298947225
 21
995.0840511650647
 31
0.0
  0
LINE
  5
108
330
1F
100
AcDbEntity
  8
0
  6
Continuous
 62
     7
100
AcDbLine
 10
4778.999298947225
 20
1023.577274134174
 30
0.0
 11
4778.999298947225
 21
1016.578996888813
 31
0.0
  0
LINE
  5
109
330
1F
100
AcDbEntity
  8
0
  6
Continuous
 62
     2
100
AcDbLine
 10
4779.481849223063
 20
1025.185103957017
 30
0.0
 11
4779.481849191701
 21
997.786051951049
 31
0.0
  0
LINE
  5
10A
330
1F
100
AcDbEntity
  8
0
  6
Continuous
 62
     7
100
AcDbLine
 10
4778.999298947225
 20
1016.578996888813
 30
0.0
 11
4778.999298947218
 21
997.786051194032
 31
0.0
  0
LINE
  5
10B
330
1F
100
AcDbEntity
  8
0
  6
Continuous
 62
     7
100
AcDbLine
 10
4778.999298947225
 20
985.0859895201316
 30
0.0
 11
4778.999298947225
 21
986.1850777728661
 31
0.0
  0
LINE
  5
10C
330
1F
100
AcDbEntity
  8
0
  6
Continuous
 62
     7
100
AcDbLine
 10
4778.999298947225
 20
986.1850777728661
 30
0.0
 11
4778.999298947225
 21
990.7903179374165
 31
0.0
  0
LINE
  5
10D
330
1F
100
AcDbEntity
  8
0
  6
Continuous
 62
     7
100
AcDbLine
 10
4778.999298947225
 20
990.7903179374165
 30
0.0
 11
4778.999298947225
 21
995.0840511650647
 31
0.0
  0
LINE
  5
10E
330
1F
100
AcDbEntity
  8
0
  6
Continuous
 62
     2
100
AcDbLine
 10
4778.999298947225
 20
995.0840511650647
 30
0.0
 11
4777.999298947225
 21
995.0840511650647
 31
0.0
  0
LINE
  5
10F
330
1F
100
AcDbEntity
  8
0
  6
Continuous
 62
     2
100
AcDbLine
 10
4777.999298947225
 20
984.0859895201316
 30
0.0
 11
4777.999298947225
 21
995.0840511650647
 31
0.0
  0
LINE
  5
110
330
1F
100
AcDbEntity
  8
0
  6
Continuous
 62
     7
100
AcDbLine
 10
4778.999298947225
 20
1025.185103957017
 30
0.0
 11
4782.999298947225
 21
1025.185103957017
 31
0.0
  0
LINE
  5
111
330
1F
100
AcDbEntity
  8
0
  6
Continuous
 62
     7
100
AcDbLine
 10
4771.999298947225
 20
1022.577274134174
 30
0.0
 11
4771.999298947225
 21
1016.578996888813
 31
0.0
  0
LINE
  5
112
330
1F
100
AcDbEntity
  8
0
  6
Continuous
 62
     2
100
AcDbLine
 10
4777.999298947225
 20
1022.577274134174
 30
0.0
 11
4777.999298947225
 21
1016.578996888813
 31
0.0
  0
LINE
  5
113
330
1F
100
AcDbEntity
  8
0
  6
Continuous
 62
     2
100
AcDbLine
 10
4771.999298947225
 20
1030.575981865614
 30
0.0
 11
4777.999298947225
 21
1030.575981865614
 31
0.0
  0
LINE
  5
114
330
1F
100
AcDbEntity
  8
0
  6
Continuous
 62
     7
100
AcDbLine
 10
4771.999298947225
 20
1022.577274134174
 30
0.0
 11
4777.999298947225
 21
1022.577274134174
 31
0.0
  0
LINE
  5
115
330
1F
100
AcDbEntity
  8
0
  6
Continuous
 62
     2
100
AcDbLine
 10
4777.999298947225
 20
1016.578996888813
 30
0.0
 11
4771.999298947225
 21
1016.578996888813
 31
0.0
  0
LINE
  5
116
330
1F
100
AcDbEntity
  8
0
  6
Continuous
 62
     2
100
AcDbLine
 10
4794.640803411978
 20
1029.754793884402
 30
0.0
 11
4783.999298947225
 21
1030.126403141386
 31
0.0
  0
LINE
  5
117
330
1F
100
AcDbEntity
  8
0
  6
Continuous
 62
     2
100
AcDbLine
 10
4795.603996117132
 20
1017.435372342725
 30
0.0
 11
4795.603996138592
 21
1010.634807788993
 31
0.0
  0
LINE
  5
118
330
1F
100
AcDbEntity
  8
0
  6
Continuous
 62
     7
100
AcDbLine
 10
4783.999298947225
 20
991.4477643970281
 30
0.0
 11
4783.999298947225
 21
987.1850777728661
 31
0.0
  0
LINE
  5
119
330
1F
100
AcDbEntity
  8
0
  6
Continuous
 62
     7
100
AcDbLine
 10
4778.999298947225
 20
986.1850777728661
 30
0.0
 11
4782.999298947225
 21
986.1850777728661
 31
0.0
  0
LINE
  5
11A
330
1F
100
AcDbEntity
  8
0
  6
Continuous
 62
     2
100
AcDbLine
 10
4782.999298947225
 20
991.4128436275363
 30
0.0
 11
4782.999298947225
 21
986.1850777728661
 31
0.0
  0
LINE
  5
11B
330
1F
100
AcDbEntity
  8
0
  6
Continuous
 62
     2
100
AcDbLine
 10
4777.999298947225
 20
995.0840511650647
 30
0.0
 11
4771.999298947225
 21
995.0840511650647
 31
0.0
  0
LINE
  5
11C
330
1F
100
AcDbEntity
  8
0
  6
Continuous
 62
     7
100
AcDbLine
 10
4778.999298947218
 20
997.786051194032
 30
0.0
 11
4778.999298947225
 21
995.0840511650647
 31
0.0
  0
LINE
  5
11D
330
1F
100
AcDbEntity
  8
1
  6
DOT_CENTER
 62
     2
100
AcDbLine
 10
4778.999298947225
 20
1033.685103957017
 30
0.0
 11
4782.999298947225
 21
1033.685103957017
 31
0.0
  0
LINE
  5
11E
330
1F
100
AcDbEntity
  8
0
  6
Continuous
 62
     2
100
AcDbLine
 10
4551.27220962981
 20
1030.285639693209
 30
0.0
 11
4559.673313305936
 21
1025.48352954615
 31
0.0
  0
LINE
  5
11F
330
1F
100
AcDbEntity
  8
0
  6
Continuous
 62
     2
100
AcDbLine
 10
4550.942012512694
 20
1020.39258191685
 30
0.0
 11
4542.541000529934
 21
1025.194532437252
 31
0.0
  0
LINE
  5
120
330
1F
100
AcDbEntity
  8
0
  6
Continuous
 62
     2
100
AcDbLine
 10
4559.673313305936
 20
1025.194693652031
 30
0.0
 11
4551.27220962981
 21
1020.392583504971
 31
0.0
  0
LINE
  5
121
330
1F
100
AcDbEntity
  8
0
  6
Continuous
 62
     2
100
AcDbLine
 10
4559.255559814475
 20
1025.33911159909
 30
0.0
 11
4551.107109682061
 21
1029.996803799091
 31
0.0
  0
LINE
  5
122
330
1F
100
AcDbEntity
  8
0
  6
Continuous
 62
     2
100
AcDbLine
 10
4551.107109682061
 20
1020.681419399091
 30
0.0
 11
4559.255559814475
 21
1025.33911159909
 31
0.0
  0
LINE
  5
123
330
1F
100
AcDbEntity
  8
0
  6
Continuous
 62
     2
100
AcDbLine
 10
4555.265671094485
 20
1023.633231090652
 30
0.0
 11
4553.93490189447
 21
1022.872613410502
 31
0.0
  0
LINE
  5
124
330
1F
100
AcDbEntity
  8
0
  6
Continuous
 62
     2
100
AcDbLine
 10
4554.10134038206
 20
1023.734162956095
 30
0.0
 11
4554.93316346965
 21
1024.209577640345
 31
0.0
  0
LINE
  5
125
330
1F
100
AcDbEntity
  8
0
  6
Continuous
 62
     2
100
AcDbLine
 10
4554.10134038206
 20
1025.006419299091
 30
0.0
 11
4554.10134038206
 21
1023.734162956095
 31
0.0
  0
LINE
  5
126
330
1F
100
AcDbEntity
  8
0
  6
Continuous
 62
     2
100
AcDbLine
 10
4554.10134038206
 20
1025.006419299091
 30
0.0
 11
4555.099417282058
 21
1025.006419299091
 31
0.0
  0
LINE
  5
127
330
1F
100
AcDbEntity
  8
0
  6
Continuous
 62
     2
100
AcDbLine
 10
4551.107109682061
 20
1026.63853514303
 30
0.0
 11
4552.149758898616
 21
1028.444456560578
 31
0.0
  0
LINE
  5
128
330
1F
100
AcDbEntity
  8
0
  6
Continuous
 62
     2
100
AcDbLine
 10
4554.10134038206
 20
1025.671803899091
 30
0.0
 11
4555.099417282058
 21
1025.671803899091
 31
0.0
  0
LINE
  5
129
330
1F
100
AcDbEntity
  8
0
  6
Continuous
 62
     2
100
AcDbLine
 10
4554.933163469646
 20
1026.46858934023
 30
0.0
 11
4554.10134038206
 21
1026.94406330692
 31
0.0
  0
LINE
  5
12A
330
1F
100
AcDbEntity
  8
0
  6
Continuous
 62
     2
100
AcDbLine
 10
4553.934901894471
 20
1027.805609787678
 30
0.0
 11
4555.265671094449
 21
1027.044935889941
 31
0.0
  0
LINE
  5
12B
330
1F
100
AcDbEntity
  8
0
  6
Continuous
 62
     2
100
AcDbLine
 10
4552.10518658206
 20
1027.036485843691
 30
0.0
 11
4552.10518658206
 21
1022.400112787603
 31
0.0
  0
LINE
  5
12C
330
1F
100
AcDbEntity
  8
0
  6
Continuous
 62
     2
100
AcDbLine
 10
4553.435955782059
 20
1027.517436512828
 30
0.0
 11
4553.435955782059
 21
1023.160786685353
 31
0.0
  0
LINE
  5
12D
330
1F
100
AcDbEntity
  8
0
  6
Continuous
 62
     2
100
AcDbLine
 10
4552.10518658206
 20
1027.036485843691
 30
0.0
 11
4551.251169673782
 21
1025.55728516803
 31
0.0
  0
LINE
  5
12E
330
1F
100
AcDbEntity
  8
0
  6
Continuous
 62
     2
100
AcDbLine
 10
4554.10134038206
 20
1026.94406330692
 30
0.0
 11
4554.10134038206
 21
1025.671803899091
 31
0.0
  0
LINE
  5
12F
330
1F
100
AcDbEntity
  8
0
  6
Continuous
 62
     2
100
AcDbLine
 10
4552.77057118206
 20
1028.278110410578
 30
0.0
 11
4552.77057118206
 21
1022.400112787603
 31
0.0
  0
LINE
  5
130
330
1F
100
AcDbEntity
  8
0
  6
Continuous
 62
     2
100
AcDbLine
 10
4551.107109682061
 20
1029.996803799091
 30
0.0
 11
4542.958477617241
 21
1025.33911159909
 31
0.0
  0
LINE
  5
131
330
1F
100
AcDbEntity
  8
0
  6
Continuous
 62
     2
100
AcDbLine
 10
4550.064460465505
 20
1028.444456560578
 30
0.0
 11
4551.107109682061
 21
1026.63853514303
 31
0.0
  0
LINE
  5
132
330
1F
100
AcDbEntity
  8
0
  6
Continuous
 62
     2
100
AcDbLine
 10
4550.963049690336
 20
1025.55728516803
 30
0.0
 11
4550.109032782059
 21
1027.036485843691
 31
0.0
  0
LINE
  5
133
330
1F
100
AcDbEntity
  8
0
  6
Continuous
 62
     2
100
AcDbLine
 10
4550.608163569646
 20
1021.541421496524
 30
0.0
 11
4548.44575595723
 21
1022.777436202974
 31
0.0
  0
LINE
  5
134
330
1F
100
AcDbEntity
  8
0
  6
Continuous
 62
     2
100
AcDbLine
 10
4548.77826358206
 20
1023.353782752671
 30
0.0
 11
4550.940671194499
 21
1022.117768046207
 31
0.0
  0
LINE
  5
135
330
1F
100
AcDbEntity
  8
0
  6
Continuous
 62
     2
100
AcDbLine
 10
4542.958477617241
 20
1025.33911159909
 30
0.0
 11
4551.107109682061
 21
1020.681419399091
 31
0.0
  0
LINE
  5
136
330
1F
100
AcDbEntity
  8
0
  6
Continuous
 62
     2
100
AcDbLine
 10
4549.443648182059
 20
1028.278110410578
 30
0.0
 11
4549.443648182059
 21
1023.921404365494
 31
0.0
  0
LINE
  5
137
330
1F
100
AcDbEntity
  8
0
  6
Continuous
 62
     2
100
AcDbLine
 10
4550.109032782059
 20
1027.036485843691
 30
0.0
 11
4550.109032782059
 21
1023.921404365494
 31
0.0
  0
LINE
  5
138
330
1F
100
AcDbEntity
  8
0
  6
Continuous
 62
     2
100
AcDbLine
 10
4547.44749438206
 20
1026.756818832687
 30
0.0
 11
4547.44749438206
 21
1023.921404365494
 31
0.0
  0
LINE
  5
139
330
1F
100
AcDbEntity
  8
0
  6
Continuous
 62
     2
100
AcDbLine
 10
4546.78210978206
 20
1026.756818832687
 30
0.0
 11
4546.78210978206
 21
1023.921404365494
 31
0.0
  0
LINE
  5
13A
330
1F
100
AcDbEntity
  8
0
  6
Continuous
 62
     2
100
AcDbLine
 10
4548.77826358206
 20
1027.524570294225
 30
0.0
 11
4548.77826358206
 21
1023.353782752671
 31
0.0
  0
LINE
  5
13B
330
1F
100
AcDbEntity
  8
0
  6
Continuous
 62
     2
100
AcDbLine
 10
4548.112878982061
 20
1027.524570294225
 30
0.0
 11
4548.112878982061
 21
1023.353782752672
 31
0.0
  0
LINE
  5
13C
330
1F
100
AcDbEntity
  8
0
  6
Continuous
 62
     2
100
AcDbLine
 10
4542.541000529934
 20
1025.48369076093
 30
0.0
 11
4550.942012512694
 21
1030.28564128133
 31
0.0
  0
LWPOLYLINE
  5
13D
330
1F
100
AcDbEntity
  8
Skizziergeometrie_ISO_
  6
Continuous
 62
     7
100
AcDbPolyline
 90
        2
 70
     0
 43
0.5
 10
4561.999298947225
 20
808.6925014954597
 10
4561.999298947225
 20
738.6925014954597
  0
LWPOLYLINE
  5
13E
330
1F
100
AcDbEntity
  8
Skizziergeometrie_ISO_
  6
Continuous
 62
     7
100
AcDbPolyline
 90
        2
 70
     0
 43
0.5
 10
4901.349288121373
 20
747.2673583273709
 10
4901.349288121373
 20
757.1982933399529
  0
LWPOLYLINE
  5
13F
330
1F
100
AcDbEntity
  8
Skizziergeometrie_ISO_
  6
Continuous
 62
     7
100
AcDbPolyline
 90
        2
 70
     0
 43
0.5
 10
4901.349288121373
 20
757.1982933399529
 10
4899.637974081819
 20
754.2342104757415
  0
LWPOLYLINE
  5
140
330
1F
100
AcDbEntity
  8
Skizziergeometrie_ISO_
  6
Continuous
 62
     7
100
AcDbPolyline
 90
        2
 70
     0
 43
0.5
 10
4899.060623812631
 20
754.2342104757415
 10
4897.349309773077
 20
757.1982933399529
  0
LWPOLYLINE
  5
141
330
1F
100
AcDbEntity
  8
Skizziergeometrie_ISO_
  6
Continuous
 62
     7
100
AcDbPolyline
 90
        2
 70
     0
 43
0.5
 10
4897.349309773077
 20
757.1982933399529
 10
4897.349309773077
 20
750.3859627135865
  0
LWPOLYLINE
  5
142
330
1F
100
AcDbEntity
  8
Skizziergeometrie_ISO_
  6
Continuous
 62
     7
100
AcDbPolyline
 90
        2
 70
     0
 43
0.5
 10
4882.516428396944
 20
753.9812300241423
 10
4899.349298947225
 20
763.6925014954613
  0
LWPOLYLINE
  5
143
330
1F
100
AcDbEntity
  8
Skizziergeometrie_ISO_
  6
Continuous
 62
     7
100
AcDbPolyline
 90
        2
 70
     0
 43
0.5
 10
4899.349298947225
 20
763.6925014954613
 10
4916.182169497508
 20
753.9812300241423
  0
LWPOLYLINE
  5
144
330
1F
100
AcDbEntity
  8
Skizziergeometrie_ISO_
  6
Continuous
 62
     7
100
AcDbPolyline
 90
        2
 70
     0
 43
0.5
 10
4916.182169497508
 20
753.4037729667771
 10
4899.349298947225
 20
743.6925014954581
  0
LWPOLYLINE
  5
145
330
1F
100
AcDbEntity
  8
Skizziergeometrie_ISO_
  6
Continuous
 62
     7
100
AcDbPolyline
 90
        2
 70
     0
 43
0.5
 10
4899.349298947225
 20
743.6925014954581
 10
4882.516428396944
 20
753.4037729667771
  0
LWPOLYLINE
  5
146
330
1F
100
AcDbEntity
  8
Skizziergeometrie_ISO_
  6
Continuous
 62
     7
100
AcDbPolyline
 90
        2
 70
     0
 43
0.5
 10
4896.015976439745
 20
750.3859627135865
 10
4896.015976439743
 20
760.1966174288215
  0
LWPOLYLINE
  5
147
330
1F
100
AcDbEntity
  8
Skizziergeometrie_ISO_
  6
Continuous
 62
     7
100
AcDbPolyline
 90
        2
 70
     0
 43
0.5
 10
4897.004843806992
 20
760.4615836412967
 10
4899.349298947225
 20
756.4008682223451
  0
LWPOLYLINE
  5
148
330
1F
100
AcDbEntity
  8
Skizziergeometrie_ISO_
  6
Continuous
 62
     7
100
AcDbPolyline
 90
        2
 70
     0
 43
0.5
 10
4902.682621454707
 20
747.2673583273709
 10
4902.682621454707
 20
760.1966174288214
  0
LWPOLYLINE
  5
149
330
1F
100
AcDbEntity
  8
Skizziergeometrie_ISO_
  6
Continuous
 62
     7
100
AcDbPolyline
 90
        2
 70
     0
 43
0.5
 10
4901.693754087459
 20
760.4615836412967
 10
4899.349298947225
 20
756.4008682223451
  0
LWPOLYLINE
  5
14A
330
1F
100
AcDbEntity
  8
Skizziergeometrie_ISO_
  6
Continuous
 62
     7
100
AcDbPolyline
 90
        2
 70
     0
 43
0.5
 10
4893.349300964832
 20
749.2325451711837
 10
4893.349300964832
 20
758.5791780434059
  0
LWPOLYLINE
  5
14B
330
1F
100
AcDbEntity
  8
Skizziergeometrie_ISO_
  6
Continuous
 62
     7
100
AcDbPolyline
 90
        2
 70
     0
 43
0.5
 10
4894.682634298166
 20
758.5791780434059
 10
4894.682634298166
 20
749.2325426275213
  0
LWPOLYLINE
  5
14C
330
1F
100
AcDbEntity
  8
Skizziergeometrie_ISO_
  6
Continuous
 62
     7
100
AcDbPolyline
 90
        2
 70
     0
 43
0.5
 10
4894.682634298166
 20
749.2325426275213
 10
4899.017906910791
 20
746.7314238125435
  0
LWPOLYLINE
  5
14D
330
1F
100
AcDbEntity
  8
Skizziergeometrie_ISO_
  6
Continuous
 62
     7
100
AcDbPolyline
 90
        2
 70
     0
 43
0.5
 10
4898.351610306139
 20
745.576509697812
 10
4894.016339896794
 20
748.0776272416643
  0
LWPOLYLINE
  5
14E
330
1F
100
AcDbEntity
  8
Skizziergeometrie_ISO_
  6
Continuous
 62
     7
100
AcDbPolyline
 90
        2
 70
     0
 43
0.5
 10
4892.015965613891
 20
756.9990402773329
 10
4892.015965613891
 20
750.3859627135865
  0
LWPOLYLINE
  5
14F
330
1F
100
AcDbEntity
  8
Skizziergeometrie_ISO_
  6
Continuous
 62
     7
100
AcDbPolyline
 90
        2
 70
     0
 43
0.5
 10
4890.682632280559
 20
750.3859627135865
 10
4890.682632280559
 20
756.9990402773329
  0
LWPOLYLINE
  5
150
102
{ACAD_REACTORS
330
24F
102
}
330
1F
100
AcDbEntity
  8
Skizziergeometrie_ISO_
  6
Continuous
 62
     7
100
AcDbPolyline
 90
        2
 70
     0
 43
0.5
 10
4905.015778565279
 20
759.1566351007717
 10
4907.754684026471
 20
757.5764973346987
  0
LWPOLYLINE
  5
151
102
{ACAD_REACTORS
330
24F
102
}
330
1F
100
AcDbEntity
  8
Skizziergeometrie_ISO_
  6
Continuous
 62
     7
100
AcDbPolyline
 90
        2
 70
     0
 43
0.5
 10
4907.08838742182
 20
756.4215832199671
 10
4905.349296929619
 20
757.4249046577745
  0
LWPOLYLINE
  5
152
102
{ACAD_REACTORS
330
24F
102
}
330
1F
100
AcDbEntity
  8
Skizziergeometrie_ISO_
  6
Continuous
 62
     7
100
AcDbPolyline
 90
        2
 70
     0
 43
0.5
 10
4905.349296929619
 20
757.4249046577745
 10
4905.349296929619
 20
754.3591681621265
  0
LWPOLYLINE
  5
153
102
{ACAD_REACTORS
330
24F
102
}
330
1F
100
AcDbEntity
  8
Skizziergeometrie_ISO_
  6
Continuous
 62
     7
100
AcDbPolyline
 90
        2
 70
     0
 43
0.5
 10
4905.349296929619
 20
754.3591681621265
 10
4907.421535724147
 20
754.3591681621265
  0
LWPOLYLINE
  5
154
102
{ACAD_REACTORS
330
24F
102
}
330
1F
100
AcDbEntity
  8
Skizziergeometrie_ISO_
  6
Continuous
 62
     7
100
AcDbPolyline
 90
        2
 70
     0
 43
0.5
 10
4907.421535724147
 20
753.0258348287929
 10
4905.349296929619
 20
753.0258348287929
  0
LWPOLYLINE
  5
155
102
{ACAD_REACTORS
330
24F
102
}
330
1F
100
AcDbEntity
  8
Skizziergeometrie_ISO_
  6
Continuous
 62
     7
100
AcDbPolyline
 90
        2
 70
     0
 43
0.5
 10
4905.349296929619
 20
753.0258348287929
 10
4905.349296929619
 20
749.9600983331449
  0
LWPOLYLINE
  5
156
102
{ACAD_REACTORS
330
24F
102
}
330
1F
100
AcDbEntity
  8
Skizziergeometrie_ISO_
  6
Continuous
 62
     7
100
AcDbPolyline
 90
        2
 70
     0
 43
0.5
 10
4905.349296929619
 20
749.9600983331449
 10
4907.08838742182
 20
750.9634197709523
  0
LWPOLYLINE
  5
157
102
{ACAD_REACTORS
330
24F
102
}
330
1F
100
AcDbEntity
  8
Skizziergeometrie_ISO_
  6
Continuous
 62
     7
100
AcDbPolyline
 90
        2
 70
     0
 43
0.5
 10
4907.754684026471
 20
749.8085056562207
 10
4905.015778565279
 20
748.2283678901478
  0
LWPOLYLINE
  5
158
102
{ACAD_REACTORS
330
24F
102
}
330
1F
100
AcDbEntity
  8
Skizziergeometrie_ISO_
  6
Continuous
 62
     7
100
AcDbPolyline
 90
        2
 70
     0
 43
0.5
 10
4904.015963596286
 20
748.8058249475135
 10
4904.015963596286
 20
758.5791780434059
  0
LWPOLYLINE
  5
159
330
1F
100
AcDbEntity
  8
Skizziergeometrie_ISO_
  6
Continuous
 62
     7
100
AcDbPolyline
 90
        2
 70
     0
 43
0.5
 10
4876.699298947227
 20
768.6925014954597
 10
4876.699298947227
 20
738.6925014954597
  0
LWPOLYLINE
  5
15A
330
1F
100
AcDbEntity
  8
Skizziergeometrie_ISO_
  6
Continuous
 62
     7
100
AcDbPolyline
 90
        2
 70
     0
 43
0.5
 10
4841.999298947225
 20
768.6925014954597
 10
4841.999298947225
 20
738.6925014954597
  0
LWPOLYLINE
  5
15B
330
1F
100
AcDbEntity
  8
Skizziergeometrie_ISO_
  6
Continuous
 62
     7
100
AcDbPolyline
 90
        2
 70
     0
 43
0.5
 10
4621.999298947225
 20
738.6925014954597
 10
4621.999298947225
 20
768.6925014954597
  0
LWPOLYLINE
  5
15C
330
1F
100
AcDbEntity
  8
Skizziergeometrie_ISO_
  6
Continuous
 62
     7
100
AcDbPolyline
 90
        2
 70
     0
 43
0.5
 10
4611.999298947225
 20
808.6925014954597
 10
4611.999298947225
 20
768.6925014954597
  0
LWPOLYLINE
  5
15D
330
1F
100
AcDbEntity
  8
Skizziergeometrie_ISO_
  6
Continuous
 62
     7
100
AcDbPolyline
 90
        2
 70
     0
 43
0.5
 10
4575.999298947225
 20
808.6925014954597
 10
4575.999298947225
 20
768.6925014954597
  0
LWPOLYLINE
  5
15E
330
1F
100
AcDbEntity
  8
Skizziergeometrie_ISO_
  6
Continuous
 62
     7
100
AcDbPolyline
 90
        2
 70
     0
 43
0.5
 10
4561.999298947225
 20
753.6925014954597
 10
4621.999298947225
 20
753.6925014954597
  0
LWPOLYLINE
  5
15F
330
1F
100
AcDbEntity
  8
Skizziergeometrie_ISO_
  6
Continuous
 62
     7
100
AcDbPolyline
 90
        2
 70
     0
 43
0.5
 10
4561.999298947225
 20
768.6925014954597
 10
4921.999298947225
 20
768.6925014954597
  0
LWPOLYLINE
  5
160
330
1F
100
AcDbEntity
  8
Skizziergeometrie_ISO_
  6
Continuous
 62
     7
100
AcDbPolyline
 90
        2
 70
     0
 43
0.5
 10
4561.999298947225
 20
778.6925014954597
 10
4921.999298947225
 20
778.6925014954597
  0
LWPOLYLINE
  5
161
330
1F
100
AcDbEntity
  8
Skizziergeometrie_ISO_
  6
Continuous
 62
     7
100
AcDbPolyline
 90
        2
 70
     0
 43
0.5
 10
4561.999298947225
 20
788.6925014954597
 10
4921.999298947225
 20
788.6925014954597
  0
LWPOLYLINE
  5
162
330
1F
100
AcDbEntity
  8
Skizziergeometrie_ISO_
  6
Continuous
 62
     7
100
AcDbPolyline
 90
        2
 70
     0
 43
0.5
 10
4561.999298947225
 20
798.6925014954597
 10
4921.999298947225
 20
798.6925014954597
  0
LWPOLYLINE
  5
163
330
1F
100
AcDbEntity
  8
Skizziergeometrie_ISO_
  6
Continuous
 62
     7
100
AcDbPolyline
 90
        2
 70
     0
 43
0.5
 10
4561.999298947225
 20
808.6925014954597
 10
4921.999298947225
 20
808.6925014954597
  0
LINE
  5
164
330
1F
100
AcDbEntity
  8
0
  6
Continuous
 62
     7
100
AcDbLine
 10
4907.754684026471
 20
749.8085056562207
 30
0.0
 11
4905.015778565279
 21
748.2283678901478
 31
0.0
  0
LINE
  5
165
330
1F
100
AcDbEntity
  8
0
  6
Continuous
 62
     7
100
AcDbLine
 10
4904.015963596286
 20
748.8058249475135
 30
0.0
 11
4904.015963596286
 21
758.5791780434059
 31
0.0
  0
LINE
  5
166
330
1F
100
AcDbEntity
  8
0
  6
Continuous
 62
     7
100
AcDbLine
 10
4905.015778565279
 20
759.1566351007717
 30
0.0
 11
4907.754684026471
 21
757.5764973346987
 31
0.0
  0
LINE
  5
167
330
1F
100
AcDbEntity
  8
0
  6
Continuous
 62
     7
100
AcDbLine
 10
4907.08838742182
 20
756.4215832199671
 30
0.0
 11
4905.349296929619
 21
757.4249046577745
 31
0.0
  0
LINE
  5
168
330
1F
100
AcDbEntity
  8
0
  6
Continuous
 62
     7
100
AcDbLine
 10
4905.349296929619
 20
757.4249046577745
 30
0.0
 11
4905.349296929619
 21
754.3591681621265
 31
0.0
  0
LINE
  5
169
330
1F
100
AcDbEntity
  8
0
  6
Continuous
 62
     7
100
AcDbLine
 10
4905.349296929619
 20
754.3591681621265
 30
0.0
 11
4907.421535724147
 21
754.3591681621265
 31
0.0
  0
LINE
  5
16A
330
1F
100
AcDbEntity
  8
0
  6
Continuous
 62
     7
100
AcDbLine
 10
4907.421535724147
 20
753.0258348287929
 30
0.0
 11
4905.349296929619
 21
753.0258348287929
 31
0.0
  0
LINE
  5
16B
330
1F
100
AcDbEntity
  8
0
  6
Continuous
 62
     7
100
AcDbLine
 10
4905.349296929619
 20
753.0258348287929
 30
0.0
 11
4905.349296929619
 21
749.9600983331449
 31
0.0
  0
LINE
  5
16C
330
1F
100
AcDbEntity
  8
0
  6
Continuous
 62
     7
100
AcDbLine
 10
4905.349296929619
 20
749.9600983331449
 30
0.0
 11
4907.08838742182
 21
750.9634197709523
 31
0.0
  0
LINE
  5
16D
102
{ACAD_REACTORS
330
24E
102
}
330
1F
100
AcDbEntity
  8
0
  6
Continuous
 62
     7
100
AcDbLine
 10
4896.015976439743
 20
760.1966174288215
 30
0.0
 11
4896.015976439745
 21
750.3859627135865
 31
0.0
  0
LINE
  5
16E
102
{ACAD_REACTORS
330
24E
102
}
330
1F
100
AcDbEntity
  8
0
  6
Continuous
 62
     7
100
AcDbLine
 10
4897.349309773077
 20
750.3859627135865
 30
0.0
 11
4897.349309773077
 21
757.1982933399529
 31
0.0
  0
LINE
  5
16F
102
{ACAD_REACTORS
330
24E
102
}
330
1F
100
AcDbEntity
  8
0
  6
Continuous
 62
     7
100
AcDbLine
 10
4897.349309773077
 20
757.1982933399529
 30
0.0
 11
4899.060623812631
 21
754.2342104757415
 31
0.0
  0
LINE
  5
170
102
{ACAD_REACTORS
330
24E
102
}
330
1F
100
AcDbEntity
  8
0
  6
Continuous
 62
     7
100
AcDbLine
 10
4899.637974081819
 20
754.2342104757415
 30
0.0
 11
4901.349288121373
 21
757.1982933399529
 31
0.0
  0
LINE
  5
171
102
{ACAD_REACTORS
330
24E
102
}
330
1F
100
AcDbEntity
  8
0
  6
Continuous
 62
     7
100
AcDbLine
 10
4901.349288121373
 20
757.1982933399529
 30
0.0
 11
4901.349288121373
 21
747.2673583273709
 31
0.0
  0
LINE
  5
172
102
{ACAD_REACTORS
330
24E
102
}
330
1F
100
AcDbEntity
  8
0
  6
Continuous
 62
     7
100
AcDbLine
 10
4902.682621454707
 20
747.2673583273709
 30
0.0
 11
4902.682621454707
 21
760.1966174288214
 31
0.0
  0
LINE
  5
173
102
{ACAD_REACTORS
330
24E
102
}
330
1F
100
AcDbEntity
  8
0
  6
Continuous
 62
     7
100
AcDbLine
 10
4901.693754087459
 20
760.4615836412967
 30
0.0
 11
4899.349298947225
 21
756.4008682223451
 31
0.0
  0
LINE
  5
174
102
{ACAD_REACTORS
330
24E
102
}
330
1F
100
AcDbEntity
  8
0
  6
Continuous
 62
     7
100
AcDbLine
 10
4899.349298947225
 20
756.4008682223451
 30
0.0
 11
4897.004843806992
 21
760.4615836412967
 31
0.0
  0
LINE
  5
175
102
{ACAD_REACTORS
330
24D
102
}
330
1F
100
AcDbEntity
  8
0
  6
Continuous
 62
     7
100
AcDbLine
 10
4894.682634298166
 20
749.2325426275213
 30
0.0
 11
4894.682634298166
 21
758.5791780434059
 31
0.0
  0
LINE
  5
176
102
{ACAD_REACTORS
330
24D
102
}
330
1F
100
AcDbEntity
  8
0
  6
Continuous
 62
     7
100
AcDbLine
 10
4893.349300964832
 20
758.5791780434059
 30
0.0
 11
4893.349300964832
 21
749.2325451711837
 31
0.0
  0
LINE
  5
177
102
{ACAD_REACTORS
330
24D
102
}
330
1F
100
AcDbEntity
  8
0
  6
Continuous
 62
     7
100
AcDbLine
 10
4894.016339896794
 20
748.0776272416643
 30
0.0
 11
4898.351610306139
 21
745.576509697812
 31
0.0
  0
LINE
  5
178
102
{ACAD_REACTORS
330
24D
102
}
330
1F
100
AcDbEntity
  8
0
  6
Continuous
 62
     7
100
AcDbLine
 10
4899.017906910791
 20
746.7314238125435
 30
0.0
 11
4894.682634298166
 21
749.2325426275213
 31
0.0
  0
LINE
  5
179
102
{ACAD_REACTORS
330
24C
102
}
330
1F
100
AcDbEntity
  8
0
  6
Continuous
 62
     7
100
AcDbLine
 10
4892.015965613891
 20
756.9990402773329
 30
0.0
 11
4892.015965613891
 21
750.3859627135865
 31
0.0
  0
LINE
  5
17A
102
{ACAD_REACTORS
330
24C
102
}
330
1F
100
AcDbEntity
  8
0
  6
Continuous
 62
     7
100
AcDbLine
 10
4890.682632280559
 20
750.3859627135865
 30
0.0
 11
4890.682632280559
 21
756.9990402773329
 31
0.0
  0
ARC
  5
17B
330
1F
100
AcDbEntity
  8
0
  6
Continuous
 62
     2
100
AcDbCircle
 10
4699.010805628313
 20
992.0846972515756
 30
0.0
 40
6.998707731439708
100
AcDbArc
 50
270.0
 51
0.0
  0
ARC
  5
17C
330
1F
100
AcDbEntity
  8
0
  6
Continuous
 62
     2
100
AcDbCircle
 10
4675.010058901148
 20
997.7854439500866
 30
0.0
 40
6.495432433307308
100
AcDbArc
 50
269.9946373965061
 51
0.00536313626222
  0
ARC
  5
17D
330
1F
100
AcDbEntity
  8
0
  6
Continuous
 62
     2
100
AcDbCircle
 10
4675.010059887075
 20
997.7854449360148
 30
0.0
 40
6.995127024542715
100
AcDbArc
 50
269.9950641825953
 51
0.00496574623437
  0
ARC
  5
17E
330
1F
100
AcDbEntity
  8
0
  6
Continuous
 62
     7
100
AcDbCircle
 10
4699.010805628313
 20
992.0846972515756
 30
0.0
 40
7.998707731439708
100
AcDbArc
 50
270.0
 51
0.0
  0
ARC
  5
17F
330
1F
100
AcDbEntity
  8
0
  6
Continuous
 62
     2
100
AcDbCircle
 10
4699.01080562482
 20
997.4942020617018
 30
0.0
 40
6.998707734932401
100
AcDbArc
 50
359.9999978299946
 51
90.00000217001657
  0
ARC
  5
180
330
1F
100
AcDbEntity
  8
0
  6
Continuous
 62
     7
100
AcDbCircle
 10
4699.01080562482
 20
997.4942020617018
 30
0.0
 40
7.9987077349324
100
AcDbArc
 50
359.9999981012891
 51
90.00000189872065
  0
ARC
  5
181
330
1F
100
AcDbEntity
  8
0
  6
Continuous
 62
     2
100
AcDbCircle
 10
4675.010058916444
 20
1030.284763947246
 30
0.0
 40
6.495432418005967
100
AcDbArc
 50
359.9946370111323
 51
90.00535951208869
  0
ARC
  5
182
330
1F
100
AcDbEntity
  8
0
  6
Continuous
 62
     2
100
AcDbCircle
 10
4675.010059891692
 20
1030.284762972005
 30
0.0
 40
6.995127030626534
100
AcDbArc
 50
359.9954451869203
 51
90.004940738675
  0
ARC
  5
183
330
1F
100
AcDbEntity
  8
0
  6
Continuous
 62
     2
100
AcDbCircle
 10
4519.925592219449
 20
1030.575981865618
 30
0.0
 40
6.998707731439026
100
AcDbArc
 50
180.0
 51
270.0
  0
ARC
  5
184
330
1F
100
AcDbEntity
  8
0
  6
Continuous
 62
     7
100
AcDbCircle
 10
4519.925592219449
 20
1030.575981865618
 30
0.0
 40
7.998707731439026
100
AcDbArc
 50
180.0
 51
270.0
  0
ARC
  5
185
330
1F
100
AcDbEntity
  8
0
  6
Continuous
 62
     2
100
AcDbCircle
 10
4519.925592219449
 20
1035.985510662469
 30
0.0
 40
6.998707731438799
100
AcDbArc
 50
90.0
 51
180.0
  0
ARC
  5
186
330
1F
100
AcDbEntity
  8
0
  6
Continuous
 62
     7
100
AcDbCircle
 10
4519.925592219449
 20
1035.985510662469
 30
0.0
 40
7.998707731438799
100
AcDbArc
 50
90.0
 51
180.0
  0
ARC
  5
187
330
1F
100
AcDbEntity
  8
0
  6
Continuous
 62
     7
100
AcDbCircle
 10
4523.778607242649
 20
1016.578996888817
 30
0.0
 40
5.998277245360441
100
AcDbArc
 50
0.0
 51
90.0
  0
ARC
  5
188
330
1F
100
AcDbEntity
  8
0
  6
Continuous
 62
     2
100
AcDbCircle
 10
4543.926338650682
 20
1030.284763668011
 30
0.0
 40
6.495432699086833
100
AcDbArc
 50
89.99463451070228
 51
180.0053647975276
  0
ARC
  5
189
330
1F
100
AcDbEntity
  8
0
  6
Continuous
 62
     2
100
AcDbCircle
 10
4543.926339753759
 20
1030.284764771088
 30
0.0
 40
6.995127212073355
100
AcDbArc
 50
89.99503448196896
 51
180.0049444799787
  0
ARC
  5
18A
330
1F
100
AcDbEntity
  8
0
  6
Continuous
 62
     2
100
AcDbCircle
 10
4543.926338932618
 20
997.7854439665426
 30
0.0
 40
6.495432418269744
100
AcDbArc
 50
179.9946370088591
 51
270.0053630140625
  0
ARC
  5
18B
330
1F
100
AcDbEntity
  8
0
  6
Continuous
 62
     2
100
AcDbCircle
 10
4543.926337962465
 20
997.7854449366965
 30
0.0
 40
6.995127025284142
100
AcDbArc
 50
179.9950342593095
 51
270.0049406947639
  0
ARC
  5
18C
330
1F
100
AcDbEntity
  8
0
  6
Continuous
 62
     2
100
AcDbCircle
 10
4523.778607242649
 20
1016.578996888817
 30
0.0
 40
6.998277245360441
100
AcDbArc
 50
0.0
 51
90.0
  0
ARC
  5
18D
330
1F
100
AcDbEntity
  8
0
  6
Continuous
 62
     2
100
AcDbCircle
 10
4540.774946132943
 20
995.0840511650689
 30
0.0
 40
9.998061644933841
100
AcDbArc
 50
180.0
 51
270.0
  0
ARC
  5
18E
330
1F
100
AcDbEntity
  8
0
  6
DASHED
 62
     3
100
AcDbCircle
 10
4540.774946132946
 20
995.0840511650655
 30
0.0
 40
10.29806164492675
100
AcDbArc
 50
179.999999976379
 51
270.000000023621
  0
ARC
  5
18F
330
1F
100
AcDbEntity
  8
0
  6
Continuous
 62
     7
100
AcDbCircle
 10
4540.774946132943
 20
995.0840511650689
 30
0.0
 40
10.99806164493384
100
AcDbArc
 50
180.0
 51
270.0
  0
ARC
  5
190
330
1F
100
AcDbEntity
  8
0
  6
Continuous
 62
     2
100
AcDbCircle
 10
4678.161451711095
 20
1032.986156744729
 30
0.0
 40
9.998061649179363
100
AcDbArc
 50
0.00000002433237
 51
89.9999999756598
  0
ARC
  5
191
330
1F
100
AcDbEntity
  8
0
  6
Continuous
 62
     7
100
AcDbCircle
 10
4678.161451711095
 20
1032.986156744729
 30
0.0
 40
10.99806164917936
100
AcDbArc
 50
0.00000002211994
 51
89.99999997787296
  0
ARC
  5
192
330
1F
100
AcDbEntity
  8
0
  6
Continuous
 62
     7
100
AcDbCircle
 10
4695.157790605635
 20
1011.491187041995
 30
0.0
 40
5.998277245360441
100
AcDbArc
 50
180.0
 51
270.0
  0
ARC
  5
193
330
1F
100
AcDbEntity
  8
0
  6
Continuous
 62
     2
100
AcDbCircle
 10
4695.157790605635
 20
1011.491187041995
 30
0.0
 40
6.998277245360441
100
AcDbArc
 50
180.0
 51
270.0
  0
ARC
  5
194
330
1F
100
AcDbEntity
  8
0
  6
Continuous
 62
     7
100
AcDbCircle
 10
4514.791598924404
 20
881.9450184306645
 30
0.0
 40
1.0
100
AcDbArc
 50
180.0
 51
270.0
  0
ARC
  5
195
330
1F
100
AcDbEntity
  8
0
  6
Continuous
 62
     7
100
AcDbCircle
 10
4529.791598924404
 20
881.9450184306645
 30
0.0
 40
1.000000000000114
100
AcDbArc
 50
270.0
 51
0.0
  0
ARC
  5
196
330
1F
100
AcDbEntity
  8
0
  6
Continuous
 62
     2
100
AcDbCircle
 10
4516.38626207799
 20
881.9254557756125
 30
0.0
 40
8.037612156311297
100
AcDbArc
 50
0.00000000002836
 51
0.13945169975636
  0
ARC
  5
197
330
1F
100
AcDbEntity
  8
0
  6
Continuous
 62
     7
100
AcDbCircle
 10
4536.946813301674
 20
885.4450193451319
 30
0.0
 40
0.4999990855336629
100
AcDbArc
 50
2.13006314732453
 51
90.0000841041534
  0
ARC
  5
198
330
1F
100
AcDbEntity
  8
0
  6
Continuous
 62
     7
100
AcDbCircle
 10
4512.942484488011
 20
886.9450184306661
 30
0.0
 40
1.0
100
AcDbArc
 50
180.0000000000912
 51
270.0
  0
ARC
  5
199
330
1F
100
AcDbEntity
  8
0
  6
Continuous
 62
     7
100
AcDbCircle
 10
4541.007675269009
 20
869.4450168145501
 30
0.0
 40
2.999998367113436
100
AcDbArc
 50
181.9999449753348
 51
270.0000314978065
  0
ARC
  5
19A
330
1F
100
AcDbEntity
  8
0
  6
Continuous
 62
     7
100
AcDbCircle
 10
4682.020786581804
 20
885.4450185729991
 30
0.0
 40
0.4999998576655356
100
AcDbArc
 50
89.99996521684321
 51
178.0000109296123
  0
ARC
  5
19B
330
1F
100
AcDbEntity
  8
0
  6
Continuous
 62
     7
100
AcDbCircle
 10
4688.175113360274
 20
886.9450184306645
 30
0.0
 40
1.0
100
AcDbArc
 50
270.0
 51
0.0
  0
ARC
  5
19C
330
1F
100
AcDbEntity
  8
0
  6
Continuous
 62
     7
100
AcDbCircle
 10
4689.175998923717
 20
881.9450184306645
 30
0.0
 40
1.0
100
AcDbArc
 50
180.0
 51
270.0
  0
ARC
  5
19D
330
1F
100
AcDbEntity
  8
0
  6
Continuous
 62
     7
100
AcDbCircle
 10
4704.175998923717
 20
881.9450184306645
 30
0.0
 40
1.0
100
AcDbArc
 50
270.0
 51
0.0
  0
ARC
  5
19E
330
1F
100
AcDbEntity
  8
0
  6
Continuous
 62
     7
100
AcDbCircle
 10
4677.959920985894
 20
869.4450213375094
 30
0.0
 40
3.000000117884498
100
AcDbArc
 50
270.0000014561676
 51
357.9999697581753
  0
ARC
  5
19F
330
1F
100
AcDbEntity
  8
0
  6
Continuous
 62
     7
100
AcDbCircle
 10
4706.025113359868
 20
886.9450184305479
 30
0.0
 40
0.9999999998833573
100
AcDbArc
 50
269.9999999934341
 51
0.00000000668313
  0
ARC
  5
1A0
330
1F
100
AcDbEntity
  8
0
  6
Continuous
 62
     7
100
AcDbCircle
 10
4793.899406474935
 20
994.7952776331493
 30
0.0
 40
2.999965251487841
100
AcDbArc
 50
271.9999567384199
 51
348.4492155204514
  0
ARC
  5
1A1
330
1F
100
AcDbEntity
  8
0
  6
Continuous
 62
     7
100
AcDbCircle
 10
4716.499298947221
 20
1010.613900991871
 30
0.0
 40
82.00000000000341
100
AcDbArc
 50
348.4492587819839
 51
351.0436481807985
  0
ARC
  5
1A2
330
1F
100
AcDbEntity
  8
0
  6
Continuous
 62
     2
100
AcDbCircle
 10
4716.494851152972
 20
1017.447596318781
 30
0.0
 40
79.10914590858667
100
AcDbArc
 50
359.9911466337852
 51
8.94999351693124
  0
ARC
  5
1A3
330
1F
100
AcDbEntity
  8
0
  6
Continuous
 62
     7
100
AcDbCircle
 10
4716.499298923452
 20
1017.456307226251
 30
0.0
 40
81.99999997614457
100
AcDbArc
 50
359.9851846602944
 51
8.95573721862709
  0
ARC
  5
1A4
330
1F
100
AcDbEntity
  8
0
  6
Continuous
 62
     7
100
AcDbCircle
 10
4782.999298947225
 20
987.1850777728661
 30
0.0
 40
1.0
100
AcDbArc
 50
270.0
 51
0.0
  0
ARC
  5
1A5
330
1F
100
AcDbEntity
  8
0
  6
Continuous
 62
     7
100
AcDbCircle
 10
4782.999298947225
 20
1041.185103957017
 30
0.0
 40
1.0
100
AcDbArc
 50
0.0
 51
90.0
  0
ARC
  5
1A6
330
1F
100
AcDbEntity
  8
0
  6
Continuous
 62
     7
100
AcDbCircle
 10
4782.999298947225
 20
1026.185103957017
 30
0.0
 40
1.0
100
AcDbArc
 50
270.0
 51
0.0
  0
ARC
  5
1A7
330
1F
100
AcDbEntity
  8
0
  6
Continuous
 62
     7
100
AcDbCircle
 10
4777.999298947225
 20
1042.984218393904
 30
0.0
 40
1.0
100
AcDbArc
 50
0.0
 51
90.0
  0
ARC
  5
1A8
330
1F
100
AcDbEntity
  8
0
  6
Continuous
 62
     7
100
AcDbCircle
 10
4777.999298947225
 20
1023.577274134174
 30
0.0
 40
1.0
100
AcDbArc
 50
270.0
 51
0.0
  0
ARC
  5
1A9
330
1F
100
AcDbEntity
  8
0
  6
Continuous
 62
     7
100
AcDbCircle
 10
4779.49929689896
 20
990.7903181401564
 30
0.0
 40
0.4999979517350333
100
AcDbArc
 50
91.99976989570729
 51
180.0000232323762
  0
ARC
  5
1AA
330
1F
100
AcDbEntity
  8
0
  6
Continuous
 62
     7
100
AcDbCircle
 10
4777.999298947225
 20
985.0859895201316
 30
0.0
 40
1.0
100
AcDbArc
 50
270.0
 51
0.0
  0
ARC
  5
1AB
330
1F
100
AcDbEntity
  8
0
  6
Continuous
 62
     7
100
AcDbCircle
 10
4793.898862463779
 20
1033.274287091318
 30
0.0
 40
3.000627081114451
100
AcDbArc
 50
11.56081899218128
 51
87.9899504865687
  0
ARC
  5
1AC
330
1F
100
AcDbEntity
  8
0
  6
Continuous
 62
     7
100
AcDbCircle
 10
4716.499298947226
 20
1017.456306922168
 30
0.0
 40
81.99999999999828
100
AcDbArc
 50
8.95573743109436
 51
11.55074421072556
  0
ARC
  5
1AD
330
1F
100
AcDbEntity
  8
0
  6
Continuous
 62
     2
100
AcDbCircle
 10
4716.495025110022
 20
1010.622633343067
 30
0.0
 40
79.1089719653612
100
AcDbArc
 50
351.0499706525744
 51
0.00881751279146
  0
ARC
  5
1AE
330
1F
100
AcDbEntity
  8
0
  6
Continuous
 62
     7
100
AcDbCircle
 10
4716.499298923447
 20
1010.613900687807
 30
0.0
 40
81.99999997615102
100
AcDbArc
 50
351.0436483932525
 51
0.01481533969164
  0
ARC
  5
1AF
330
1F
100
AcDbEntity
  8
0
  6
Continuous
 62
     2
100
AcDbCircle
 10
4559.590763332059
 20
1025.33911159909
 30
0.0
 40
0.1663461499999273
100
AcDbArc
 50
299.7524870760965
 51
60.24751292405896
  0
ARC
  5
1B0
330
1F
100
AcDbEntity
  8
0
  6
Continuous
 62
     2
100
AcDbCircle
 10
4551.107109682061
 20
1020.681419399091
 30
0.0
 40
0.3326923000012068
100
AcDbArc
 50
240.2480640654436
 51
299.7524870753874
  0
ARC
  5
1B1
330
1F
100
AcDbEntity
  8
0
  6
Continuous
 62
     2
100
AcDbCircle
 10
4553.768648082059
 20
1023.160786685353
 30
0.0
 40
0.3326923000004172
100
AcDbArc
 50
180.0
 51
299.9816393684051
  0
ARC
  5
1B2
330
1F
100
AcDbEntity
  8
0
  6
Continuous
 62
     2
100
AcDbCircle
 10
4555.099417282067
 20
1023.921404365499
 30
0.0
 40
0.3326923000001493
100
AcDbArc
 50
299.9816393696875
 51
119.9816393697756
  0
ARC
  5
1B3
330
1F
100
AcDbEntity
  8
0
  6
Continuous
 62
     2
100
AcDbCircle
 10
4552.43787888206
 20
1022.400112787603
 30
0.0
 40
0.3326923000004172
100
AcDbArc
 50
180.0
 51
0.0
  0
ARC
  5
1B4
330
1F
100
AcDbEntity
  8
0
  6
Continuous
 62
     2
100
AcDbCircle
 10
4555.099417282058
 20
1025.33911159909
 30
0.0
 40
0.3326922999990529
100
AcDbArc
 50
270.0
 51
90.0
  0
ARC
  5
1B5
330
1F
100
AcDbEntity
  8
0
  6
Continuous
 62
     2
100
AcDbCircle
 10
4552.43787888206
 20
1028.278110410578
 30
0.0
 40
0.3326922999995077
100
AcDbArc
 50
0.0
 51
150.0000000001024
  0
ARC
  5
1B6
330
1F
100
AcDbEntity
  8
0
  6
Continuous
 62
     2
100
AcDbCircle
 10
4551.107109682061
 20
1025.64045824303
 30
0.0
 40
0.1663461500021285
100
AcDbArc
 50
209.9999999996182
 51
329.9999999999119
  0
ARC
  5
1B7
330
1F
100
AcDbEntity
  8
0
  6
Continuous
 62
     2
100
AcDbCircle
 10
4555.099417282047
 20
1026.756762615086
 30
0.0
 40
0.3326922999997478
100
AcDbArc
 50
240.0183606335275
 51
60.01836063329403
  0
ARC
  5
1B8
330
1F
100
AcDbEntity
  8
0
  6
Continuous
 62
     2
100
AcDbCircle
 10
4553.768648082059
 20
1027.517436512828
 30
0.0
 40
0.3326922999998842
100
AcDbArc
 50
60.01836063137113
 51
180.0
  0
ARC
  5
1B9
330
1F
100
AcDbEntity
  8
0
  6
Continuous
 62
     2
100
AcDbCircle
 10
4549.77634048206
 20
1028.278110410578
 30
0.0
 40
0.3326923000017803
100
AcDbArc
 50
29.99999999981925
 51
180.0
  0
ARC
  5
1BA
330
1F
100
AcDbEntity
  8
0
  6
Continuous
 62
     2
100
AcDbCircle
 10
4547.114802082059
 20
1026.756818832687
 30
0.0
 40
0.3326923000004172
100
AcDbArc
 50
0.0
 51
180.0
  0
ARC
  5
1BB
330
1F
100
AcDbEntity
  8
0
  6
Continuous
 62
     2
100
AcDbCircle
 10
4548.44557128206
 20
1027.524570294225
 30
0.0
 40
0.3326923000004172
100
AcDbArc
 50
0.0
 51
180.0
  0
ARC
  5
1BC
330
1F
100
AcDbEntity
  8
0
  6
Continuous
 62
     2
100
AcDbCircle
 10
4542.623640809803
 20
1025.33911159909
 30
0.0
 40
0.1665309277437376
100
AcDbArc
 50
119.7519359346296
 51
240.2480640650599
  0
ARC
  5
1BD
330
1F
100
AcDbEntity
  8
0
  6
Continuous
 62
     2
100
AcDbCircle
 10
4547.114802082059
 20
1023.921404365494
 30
0.0
 40
0.3326922999995077
100
AcDbArc
 50
180.0
 51
0.0
  0
ARC
  5
1BE
330
1F
100
AcDbEntity
  8
0
  6
Continuous
 62
     2
100
AcDbCircle
 10
4548.77826358206
 20
1023.353782752671
 30
0.0
 40
0.6653845999990153
100
AcDbArc
 50
179.9999999999119
 51
240.0183606307789
  0
ARC
  5
1BF
330
1F
100
AcDbEntity
  8
0
  6
Continuous
 62
     2
100
AcDbCircle
 10
4549.77634048206
 20
1023.921404365494
 30
0.0
 40
0.3326923000004172
100
AcDbArc
 50
180.0
 51
0.0
  0
ARC
  5
1C0
330
1F
100
AcDbEntity
  8
0
  6
Continuous
 62
     2
100
AcDbCircle
 10
4550.774417382074
 20
1021.829594771365
 30
0.0
 40
0.3326922999999296
100
AcDbArc
 50
240.0183606283015
 51
60.01836062865117
  0
ARC
  5
1C1
330
1F
100
AcDbEntity
  8
0
  6
Continuous
 62
     2
100
AcDbCircle
 10
4551.107109682061
 20
1029.996803799091
 30
0.0
 40
0.3326922999980492
100
AcDbArc
 50
60.24751292444743
 51
119.7519359347216
  0
LWPOLYLINE
  5
1C2
330
1F
100
AcDbEntity
  8
Skizziergeometrie_ISO_
  6
Continuous
 62
     7
100
AcDbPolyline
 90
        2
 70
     0
 43
0.5
 10
4899.060623812631
 20
754.2342104757415
 42
0.57735026918897
 10
4899.637974081819
 20
754.2342104757415
 42
0.57735026918897
  0
LWPOLYLINE
  5
1C3
330
1F
100
AcDbEntity
  8
Skizziergeometrie_ISO_
  6
Continuous
 62
     7
100
AcDbPolyline
 90
        2
 70
     0
 43
0.5
 10
4893.349300964832
 20
749.2325451711837
 42
0.26803505952201
 10
4894.016339896794
 20
748.0776272416643
 42
0.26803505952201
  0
LWPOLYLINE
  5
1C4
330
1F
100
AcDbEntity
  8
Skizziergeometrie_ISO_
  6
Continuous
 62
     7
100
AcDbPolyline
 90
        2
 70
     0
 43
0.5
 10
4882.516428396944
 20
753.9812300241423
 42
0.57756392459821
 10
4882.516428396944
 20
753.4037729667771
 42
0.57756392459821
  0
LWPOLYLINE
  5
1C5
330
1F
100
AcDbEntity
  8
Skizziergeometrie_ISO_
  6
Continuous
 62
     7
100
AcDbPolyline
 90
        2
 70
     0
 43
0.5
 10
4916.182169497508
 20
753.4037729667771
 42
0.57756392459821
 10
4916.182169497508
 20
753.9812300241423
 42
0.57756392459821
  0
LWPOLYLINE
  5
1C6
102
{ACAD_REACTORS
330
24F
102
}
330
1F
100
AcDbEntity
  8
Skizziergeometrie_ISO_
  6
Continuous
 62
     7
100
AcDbPolyline
 90
        2
 70
     0
 43
0.5
 10
4905.015778565279
 20
759.1566351007717
 42
0.57724345630707
 10
4904.015963596286
 20
758.5791780434059
 42
0.57724345630707
  0
LWPOLYLINE
  5
1C7
102
{ACAD_REACTORS
330
24F
102
}
330
1F
100
AcDbEntity
  8
Skizziergeometrie_ISO_
  6
Continuous
 62
     7
100
AcDbPolyline
 90
        2
 70
     0
 43
0.5
 10
4904.015963596286
 20
748.8058249475135
 42
0.57724345630707
 10
4905.015778565279
 20
748.2283678901478
 42
0.57724345630707
  0
LWPOLYLINE
  5
1C8
330
1F
100
AcDbEntity
  8
Skizziergeometrie_ISO_
  6
Continuous
 62
     7
100
AcDbPolyline
 90
        2
 70
     0
 43
0.5
 10
4897.004843806992
 20
760.4615836412967
 42
0.76732698797919
 10
4896.015976439743
 20
760.1966174288215
 42
0.76732698797919
  0
LWPOLYLINE
  5
1C9
330
1F
100
AcDbEntity
  8
Skizziergeometrie_ISO_
  6
Continuous
 62
     7
100
AcDbPolyline
 90
        2
 70
     0
 43
0.5
 10
4896.015976439745
 20
750.3859627135865
 42
1.0
 10
4897.349309773077
 20
750.3859627135865
 42
1.0
  0
LWPOLYLINE
  5
1CA
330
1F
100
AcDbEntity
  8
Skizziergeometrie_ISO_
  6
Continuous
 62
     7
100
AcDbPolyline
 90
        2
 70
     0
 43
0.5
 10
4901.349288121373
 20
747.2673583273709
 42
1.0
 10
4902.682621454707
 20
747.2673583273709
 42
1.0
  0
LWPOLYLINE
  5
1CB
330
1F
100
AcDbEntity
  8
Skizziergeometrie_ISO_
  6
Continuous
 62
     7
100
AcDbPolyline
 90
        2
 70
     0
 43
0.5
 10
4902.682621454707
 20
760.1966174288214
 42
0.76732698797946
 10
4901.693754087459
 20
760.4615836412967
 42
0.76732698797946
  0
LWPOLYLINE
  5
1CC
330
1F
100
AcDbEntity
  8
Skizziergeometrie_ISO_
  6
Continuous
 62
     7
100
AcDbPolyline
 90
        2
 70
     0
 43
0.5
 10
4894.682634298166
 20
758.5791780434059
 42
1.0
 10
4893.349300964832
 20
758.5791780434059
 42
1.0
  0
LWPOLYLINE
  5
1CD
330
1F
100
AcDbEntity
  8
Skizziergeometrie_ISO_
  6
Continuous
 62
     7
100
AcDbPolyline
 90
        2
 70
     0
 43
0.5
 10
4898.351610306139
 20
745.576509697812
 42
1.00000000000118
 10
4899.017906910791
 20
746.7314238125435
 42
1.00000000000118
  0
LWPOLYLINE
  5
1CE
330
1F
100
AcDbEntity
  8
Skizziergeometrie_ISO_
  6
Continuous
 62
     7
100
AcDbPolyline
 90
        2
 70
     0
 43
0.5
 10
4892.015965613891
 20
756.9990402773329
 42
1.0
 10
4890.682632280559
 20
756.9990402773329
 42
1.0
  0
LWPOLYLINE
  5
1CF
330
1F
100
AcDbEntity
  8
Skizziergeometrie_ISO_
  6
Continuous
 62
     7
100
AcDbPolyline
 90
        2
 70
     0
 43
0.5
 10
4890.682632280559
 20
750.3859627135865
 42
1.0
 10
4892.015965613891
 20
750.3859627135865
 42
1.0
  0
LWPOLYLINE
  5
1D0
102
{ACAD_REACTORS
330
24F
102
}
330
1F
100
AcDbEntity
  8
Skizziergeometrie_ISO_
  6
Continuous
 62
     7
100
AcDbPolyline
 90
        2
 70
     0
 43
0.5
 10
4907.08838742182
 20
756.4215832199671
 42
1.00000000000236
 10
4907.754684026471
 20
757.5764973346987
 42
1.00000000000236
  0
LWPOLYLINE
  5
1D1
102
{ACAD_REACTORS
330
24F
102
}
330
1F
100
AcDbEntity
  8
Skizziergeometrie_ISO_
  6
Continuous
 62
     7
100
AcDbPolyline
 90
        2
 70
     0
 43
0.5
 10
4907.421535724147
 20
753.0258348287929
 42
1.0
 10
4907.421535724147
 20
754.3591681621265
 42
1.0
  0
LWPOLYLINE
  5
1D2
102
{ACAD_REACTORS
330
24F
102
}
330
1F
100
AcDbEntity
  8
Skizziergeometrie_ISO_
  6
Continuous
 62
     7
100
AcDbPolyline
 90
        2
 70
     0
 43
0.5
 10
4907.754684026471
 20
749.8085056562207
 42
1.00000000000236
 10
4907.08838742182
 20
750.9634197709523
 42
1.00000000000236
  0
ARC
  5
1D3
330
1F
100
AcDbEntity
  8
0
  6
Continuous
 62
     7
100
AcDbCircle
 10
4904.682630262954
 20
748.8058249475135
 30
0.0
 40
0.6666666666678793
100
AcDbArc
 50
180.0
 51
299.9816393687321
  0
ARC
  5
1D4
330
1F
100
AcDbEntity
  8
0
  6
Continuous
 62
     7
100
AcDbCircle
 10
4904.682630262954
 20
758.5791780434059
 30
0.0
 40
0.6666666666659464
100
AcDbArc
 50
60.01836063126785
 51
180.0
  0
ARC
  5
1D5
330
1F
100
AcDbEntity
  8
0
  6
Continuous
 62
     7
100
AcDbCircle
 10
4907.421535724147
 20
756.9990402773329
 30
0.0
 40
0.6666666666673099
100
AcDbArc
 50
240.0183606310648
 51
60.01835942391241
  0
ARC
  5
1D6
330
1F
100
AcDbEntity
  8
0
  6
Continuous
 62
     7
100
AcDbCircle
 10
4907.421535724147
 20
753.6925014954597
 30
0.0
 40
0.6666666666668561
100
AcDbArc
 50
270.0
 51
90.0
  0
ARC
  5
1D7
330
1F
100
AcDbEntity
  8
0
  6
Continuous
 62
     7
100
AcDbCircle
 10
4907.421535724147
 20
750.3859627135865
 30
0.0
 40
0.6666666666654919
100
AcDbArc
 50
299.9816393686644
 51
119.9816393689353
  0
ARC
  5
1D8
102
{ACAD_REACTORS
330
24E
102
}
330
1F
100
AcDbEntity
  8
0
  6
Continuous
 62
     7
100
AcDbCircle
 10
4896.545908864695
 20
760.1966174288215
 30
0.0
 40
0.5299324249509441
100
AcDbArc
 50
29.9999999999662
 51
180.0
  0
ARC
  5
1D9
102
{ACAD_REACTORS
330
24E
102
}
330
1F
100
AcDbEntity
  8
0
  6
Continuous
 62
     7
100
AcDbCircle
 10
4896.682643106411
 20
750.3859627135865
 30
0.0
 40
0.6666666666660603
100
AcDbArc
 50
180.0
 51
0.0
  0
ARC
  5
1DA
102
{ACAD_REACTORS
330
24E
102
}
330
1F
100
AcDbEntity
  8
0
  6
Continuous
 62
     7
100
AcDbCircle
 10
4899.349298947225
 20
754.4008771424081
 30
0.0
 40
0.3333333333326854
100
AcDbArc
 50
210.0000000000568
 51
329.9999999999432
  0
ARC
  5
1DB
102
{ACAD_REACTORS
330
24E
102
}
330
1F
100
AcDbEntity
  8
0
  6
Continuous
 62
     7
100
AcDbCircle
 10
4902.015954788039
 20
747.2673583273709
 30
0.0
 40
0.6666666666660603
100
AcDbArc
 50
180.0
 51
0.0
  0
ARC
  5
1DC
102
{ACAD_REACTORS
330
24E
102
}
330
1F
100
AcDbEntity
  8
0
  6
Continuous
 62
     7
100
AcDbCircle
 10
4902.152689029756
 20
760.1966174288214
 30
0.0
 40
0.5299324249508572
100
AcDbArc
 50
0.0
 51
150.0000000000723
  0
ARC
  5
1DD
102
{ACAD_REACTORS
330
24D
102
}
330
1F
100
AcDbEntity
  8
0
  6
Continuous
 62
     7
100
AcDbCircle
 10
4894.015967631498
 20
758.5791780434059
 30
0.0
 40
0.6666666666678793
100
AcDbArc
 50
0.0
 51
180.0
  0
ARC
  5
1DE
102
{ACAD_REACTORS
330
24D
102
}
330
1F
100
AcDbEntity
  8
0
  6
Continuous
 62
     7
100
AcDbCircle
 10
4894.682638702287
 20
749.2325451711837
 30
0.0
 40
1.333337737454713
100
AcDbArc
 50
180.0
 51
240.0183606311383
  0
ARC
  5
1DF
102
{ACAD_REACTORS
330
24D
102
}
330
1F
100
AcDbEntity
  8
0
  6
Continuous
 62
     7
100
AcDbCircle
 10
4898.684758608466
 20
746.1539667551777
 30
0.0
 40
0.6666666666668554
100
AcDbArc
 50
240.0183606311324
 51
60.01836063126785
  0
ARC
  5
1E0
102
{ACAD_REACTORS
330
24C
102
}
330
1F
100
AcDbEntity
  8
0
  6
Continuous
 62
     7
100
AcDbCircle
 10
4891.349298947225
 20
750.3859627135865
 30
0.0
 40
0.6666666666660603
100
AcDbArc
 50
180.0
 51
0.0
  0
ARC
  5
1E1
102
{ACAD_REACTORS
330
24C
102
}
330
1F
100
AcDbEntity
  8
0
  6
Continuous
 62
     7
100
AcDbCircle
 10
4891.349298947225
 20
756.9990402773329
 30
0.0
 40
0.6666666666660603
100
AcDbArc
 50
0.0
 51
180.0
  0
CIRCLE
  5
1E2
330
1F
100
AcDbEntity
  8
0
  6
Continuous
 62
     7
100
AcDbCircle
 10
4696.660398923717
 20
994.6850777728702
 30
0.0
 40
8.4999999999999
  0
CIRCLE
  5
1E3
330
1F
100
AcDbEntity
  8
0
  6
Continuous
 62
     2
100
AcDbCircle
 10
4696.660398923717
 20
994.6850777728702
 30
0.0
 40
7.50000000000008
  0
CIRCLE
  5
1E4
330
1F
100
AcDbEntity
  8
0
  6
Continuous
 62
     2
100
AcDbCircle
 10
4522.275998924405
 20
1033.685103957022
 30
0.0
 40
7.500000000001397
  0
CIRCLE
  5
1E5
330
1F
100
AcDbEntity
  8
0
  6
Continuous
 62
     7
100
AcDbCircle
 10
4522.275998924405
 20
1033.685103957022
 30
0.0
 40
8.500000000000828
  0
SPLINE
  5
1E6
330
1F
100
AcDbEntity
  8
0
  6
Continuous
 62
     2
100
AcDbSpline
210
0.0
220
0.0
230
1.0
 70
     8
 71
     3
 72
    23
 73
    19
 74
    17
 42
0.0000000001
 43
0.0000000001
 44
0.00000001
 40
0.0
 40
0.0
 40
0.0
 40
0.0
 40
0.0023021676352993
 40
0.0091867854605952
 40
0.019433265873286
 40
0.0364084262606793
 40
0.0503296738103179
 40
0.0714129926511256
 40
0.1009745288435119
 40
0.1403304286175617
 40
0.1652364495129154
 40
0.1994300672056603
 40
0.2431492630324917
 40
0.2966320183902357
 40
0.3289218960953025
 40
0.3712256720877415
 40
0.4227122743115446
 40
0.4825506318426004
 40
0.4825506318426004
 40
0.4825506318426004
 40
0.4825506318426004
 10
4778.999298947218
 20
997.786051194032
 30
0.0
 10
4779.000066240337
 20
997.7860388167387
 30
0.0
 10
4779.003128118699
 20
997.7859894252279
 30
0.0
 10
4779.009606045064
 20
997.7859722545265
 30
0.0
 10
4779.020974698388
 20
997.7859700651204
 30
0.0
 10
4779.034689037086
 20
997.7859636629207
 30
0.0
 10
4779.0520156004
 20
997.7859618168363
 30
0.0
 10
4779.073537639552
 20
997.7859611287295
 30
0.0
 10
4779.103537888924
 20
997.7859637878024
 30
0.0
 10
4779.134812374861
 20
997.7859692430354
 30
0.0
 10
4779.167630886626
 20
997.7859768341939
 30
0.0
 10
4779.201903830204
 20
997.7859862260557
 30
0.0
 10
4779.245702350951
 20
997.7860001495603
 30
0.0
 10
4779.288866291022
 20
997.7860159819005
 30
0.0
 10
4779.331558424163
 20
997.7860325881277
 30
0.0
 10
4779.373585174391
 20
997.786044904329
 30
0.0
 10
4779.424794752489
 20
997.7860538898575
 30
0.0
 10
4779.461903072483
 20
997.7860526288528
 30
0.0
 10
4779.481849191701
 20
997.786051951049
 30
0.0
 11
4778.999298947218
 21
997.786051194032
 31
0.0
 11
4779.001600855734
 21
997.7860166541024
 31
0.0
 11
4779.008485362175
 21
997.7859774920167
 31
0.0
 11
4779.018731839953
 21
997.7859701444825
 31
0.0
 11
4779.035706999337
 21
997.785964307759
 31
0.0
 11
4779.049628246728
 21
997.7859622088263
 31
0.0
 11
4779.07071156556
 21
997.785961571939
 31
0.0
 11
4779.100273101663
 21
997.7859638610626
 31
0.0
 11
4779.139629000871
 21
997.785970540162
 31
0.0
 11
4779.164535021107
 21
997.7859762675755
 31
0.0
 11
4779.198728637533
 21
997.7859855753874
 31
0.0
 11
4779.242447831163
 21
997.7859994354505
 31
0.0
 11
4779.295930583008
 21
997.7860188196177
 31
0.0
 11
4779.328220458475
 21
997.7860308428293
 31
0.0
 11
4779.370524232645
 21
997.7860432593883
 31
0.0
 11
4779.422010834171
 21
997.7860517389202
 31
0.0
 11
4779.481849191701
 21
997.786051951049
 31
0.0
  0
SPLINE
  5
1E7
330
1F
100
AcDbEntity
  8
0
  6
Continuous
 62
     2
100
AcDbSpline
210
0.0
220
0.0
230
1.0
 70
     8
 71
     3
 72
    37
 73
    33
 74
    31
 42
0.0000000001
 43
0.0000000001
 44
0.00000001
 40
0.0
 40
0.0
 40
0.0
 40
0.0
 40
0.2107233787154027
 40
0.4254763333154017
 40
0.6424170851183457
 40
0.8597038619184673
 40
1.075494903167492
 40
1.227458615806183
 40
1.376657113526192
 40
1.522319160579273
 40
1.663673523074778
 40
1.799948970904419
 40
1.930374280223452
 40
2.054178236825956
 40
2.156773766392632
 40
2.253321334927269
 40
2.343619094720121
 40
2.427465204876417
 40
2.504657835199015
 40
2.574995172161514
 40
2.63827542854542
 40
2.694296859927232
 40
2.74332950029634
 40
2.785292888284423
 40
2.820299149751792
 40
2.848460692143612
 40
2.869964813485216
 40
2.885022588433998
 40
2.890210615181229
 40
2.893884407855139
 40
2.895378826724277
 40
2.896873245591665
 40
2.896873245591665
 40
2.896873245591665
 40
2.896873245591665
 10
4794.640803411978
 20
1029.754793884402
 30
0.0
 10
4794.710207875855
 20
1029.765602980888
 30
0.0
 10
4794.850343996423
 20
1029.787427871736
 30
0.0
 10
4795.061904668619
 20
1029.82055815315
 30
0.0
 10
4795.275606460967
 20
1029.854156451198
 30
0.0
 10
4795.489626950503
 20
1029.887955336564
 30
0.0
 10
4795.68223219645
 20
1029.918510622608
 30
0.0
 10
4795.852403893396
 20
1029.945621572826
 30
0.0
 10
4795.999477282186
 20
1029.969136823677
 30
0.0
 10
4796.14304540891
 20
1029.992175930084
 30
0.0
 10
4796.282346854038
 20
1030.01461593811
 30
0.0
 10
4796.41662021423
 20
1030.036333795066
 30
0.0
 10
4796.545104087903
 20
1030.057206439456
 30
0.0
 10
4796.662491955129
 20
1030.076368791693
 30
0.0
 10
4796.768720530017
 20
1030.093798748442
 30
0.0
 10
4796.863914897234
 20
1030.10949843982
 30
0.0
 10
4796.952929576099
 20
1030.124260849506
 30
0.0
 10
4797.035565890425
 20
1030.138049800518
 30
0.0
 10
4797.111625170084
 20
1030.150829063026
 30
0.0
 10
4797.180908771432
 20
1030.162562353556
 30
0.0
 10
4797.24321804104
 20
1030.173213199742
 30
0.0
 10
4797.298509421992
 20
1030.182771914862
 30
0.0
 10
4797.346778564041
 20
1030.191236374812
 30
0.0
 10
4797.388127715328
 20
1030.198609650898
 30
0.0
 10
4797.422599436539
 20
1030.204907522264
 30
0.0
 10
4797.450345178861
 20
1030.210104443317
 30
0.0
 10
4797.47149347021
 20
1030.214324583635
 30
0.0
 10
4797.485151739949
 20
1030.217092227153
 30
0.0
 10
4797.492858847583
 20
1030.219065288154
 30
0.0
 10
4797.496272235763
 20
1030.219756262532
 30
0.0
 10
4797.498266719282
 20
1030.220747862106
 30
0.0
 10
4797.499174507955
 20
1030.221157209819
 30
0.0
 10
4797.499628402293
 20
1030.221361883676
 30
0.0
 11
4794.640803411978
 21
1029.754793884402
 31
0.0
 11
4794.849012306157
 21
1029.787249988939
 31
0.0
 11
4795.061180835897
 21
1029.820466648878
 31
0.0
 11
4795.275488661769
 21
1029.854163022016
 31
0.0
 11
4795.490115444341
 21
1029.888058266152
 31
0.0
 11
4795.703240844182
 21
1029.921871539081
 31
0.0
 11
4795.853311903085
 21
1029.945780684581
 31
0.0
 11
4796.000639035651
 21
1029.969337164196
 31
0.0
 11
4796.14446082178
 21
1029.992418017439
 31
0.0
 11
4796.284015841376
 21
1030.014900283826
 31
0.0
 11
4796.418542674342
 21
1030.03666100287
 31
0.0
 11
4796.54727990058
 21
1030.057577214085
 31
0.0
 11
4796.669466099994
 21
1030.077525956985
 31
0.0
 11
4796.770707569533
 21
1030.094139431411
 31
0.0
 11
4796.865967971061
 21
1030.109852129804
 31
0.0
 11
4796.955048605683
 21
1030.124627987102
 31
0.0
 11
4797.037750774507
 21
1030.138430938242
 31
0.0
 11
4797.113875778638
 21
1030.151224918165
 31
0.0
 11
4797.183224919182
 21
1030.162973861807
 31
0.0
 11
4797.245599497246
 21
1030.173641704107
 31
0.0
 11
4797.300800813933
 21
1030.183192380004
 31
0.0
 11
4797.34909531527
 21
1030.191668284807
 31
0.0
 11
4797.390404613981
 21
1030.199048513221
 31
0.0
 11
4797.424839749271
 21
1030.205346115896
 31
0.0
 11
4797.452511760355
 21
1030.210574143482
 31
0.0
 11
4797.473604815933
 21
1030.214758667478
 31
0.0
 11
4797.488325299359
 21
1030.217927887275
 31
0.0
 11
4797.493369187655
 21
1030.219142305813
 31
0.0
 11
4797.496911570688
 21
1030.220116099968
 31
0.0
 11
4797.498269986491
 21
1030.220738991822
 31
0.0
 11
4797.499628402293
 21
1030.221361883676
 31
0.0
  0
SPLINE
  5
1E8
330
1F
100
AcDbEntity
  8
0
  6
Continuous
 62
     2
100
AcDbSpline
210
0.0
220
0.0
230
1.0
 70
     8
 71
     3
 72
    37
 73
    33
 74
    31
 42
0.0000000001
 43
0.0000000001
 44
0.00000001
 40
0.0
 40
0.0
 40
0.0
 40
0.0
 40
0.000985478903208
 40
0.0019709578056249
 40
0.0064855526146512
 40
0.0117882234552595
 40
0.0268372336190496
 40
0.0483358626706421
 40
0.0764937313348858
 40
0.1114975409107425
 40
0.1534592954720717
 40
0.2024908607226629
 40
0.2585115921389449
 40
0.3217915694200181
 40
0.3921289393394
 40
0.4693218282862677
 40
0.5531683509174377
 40
0.6434666152516252
 40
0.7400147258895057
 40
0.8426107861281811
 40
0.9664154853825647
 40
1.096841551890238
 40
1.233117755928993
 40
1.374472863437444
 40
1.520135638654177
 40
1.669334846213121
 40
1.821299252951156
 40
2.03709126726187
 40
2.25437902904838
 40
2.471320907425939
 40
2.686075267547087
 40
2.89680047780994
 40
2.89680047780994
 40
2.89680047780994
 40
2.89680047780994
 10
4797.499491516735
 20
997.8479774568394
 30
0.0
 10
4797.499189165103
 20
997.8481056261612
 30
0.0
 10
4797.498584461839
 20
997.8483619648051
 30
0.0
 10
4797.496611116804
 20
997.8492538681057
 30
0.0
 10
4797.493018032884
 20
997.849839490414
 30
0.0
 10
4797.484978313543
 20
997.8517784147336
 30
0.0
 10
4797.471256484238
 20
997.8543930241777
 30
0.0
 10
4797.45008842009
 20
997.8584825395017
 30
0.0
 10
4797.422324481184
 20
997.8635583756062
 30
0.0
 10
4797.387838283721
 20
997.8697620043927
 30
0.0
 10
4797.346477923433
 20
997.8770618991383
 30
0.0
 10
4797.298201170435
 20
997.8854761475314
 30
0.0
 10
4797.242905760399
 20
997.8950073811357
 30
0.0
 10
4797.180595844517
 20
997.9056525145935
 30
0.0
 10
4797.111314703228
 20
997.9174002987841
 30
0.0
 10
4797.035260816837
 20
997.9302129986784
 30
0.0
 10
4796.952632633976
 20
997.9440529395665
 30
0.0
 10
4796.863628630672
 20
997.9588825177625
 30
0.0
 10
4796.768447278397
 20
997.9746641217191
 30
0.0
 10
4796.66223457308
 20
997.9921942279713
 30
0.0
 10
4796.544865318367
 20
998.0114744196179
 30
0.0
 10
4796.416402445495
 20
998.0324805844546
 30
0.0
 10
4796.282151318659
 20
998.0543401417174
 30
0.0
 10
4796.14287283539
 20
998.076926873839
 30
0.0
 10
4795.999327905603
 20
998.1001146377785
 30
0.0
 10
4795.852277446153
 20
998.1237773328995
 30
0.0
 10
4795.682130942981
 20
998.1510509683744
 30
0.0
 10
4795.48955174959
 20
998.1817756699547
 30
0.0
 10
4795.275556462246
 20
998.2157403595702
 30
0.0
 10
4795.061875306356
 20
998.2494772024233
 30
0.0
 10
4794.850330403549
 20
998.2827174843483
 30
0.0
 10
4794.710199702304
 20
998.3045841641457
 30
0.0
 10
4794.64079784722
 20
998.3154139689558
 30
0.0
 11
4797.499491516735
 21
997.8479774568394
 31
0.0
 11
4797.49858571289
 21
997.8483656424413
 31
0.0
 11
4797.497679909045
 21
997.8487538280433
 31
0.0
 11
4797.493299441026
 21
997.8498461037558
 31
0.0
 11
4797.488123181325
 21
997.8509970397002
 31
0.0
 11
4797.473375726437
 21
997.8539945855667
 31
0.0
 11
4797.452259504489
 21
997.8580314434737
 31
0.0
 11
4797.42456820415
 21
997.8631360936328
 31
0.0
 11
4797.390117524978
 21
997.8693342699269
 31
0.0
 11
4797.348796414474
 21
997.8766386982165
 31
0.0
 11
4797.300493820136
 21
997.8850621043617
 31
0.0
 11
4797.245288160051
 21
997.8945835245838
 31
0.0
 11
4797.182912632001
 21
997.905244154262
 31
0.0
 11
4797.113565729047
 21
997.9170064949257
 31
0.0
 11
4797.03744594425
 21
997.929833048104
 31
0.0
 11
4796.954751770667
 21
997.9436863153265
 31
0.0
 11
4796.865681701361
 21
997.9585287981226
 31
0.0
 11
4796.770434229387
 21
997.9743229980209
 31
0.0
 11
4796.669207847813
 21
997.9910314165518
 31
0.0
 11
4796.547040877268
 21
998.0111021630604
 31
0.0
 11
4796.418324619591
 21
998.0321517196879
 31
0.0
 11
4796.283819994372
 21
998.0540539931292
 31
0.0
 11
4796.144287921207
 21
998.0766828900788
 31
0.0
 11
4796.000489319691
 21
998.0999123172311
 31
0.0
 11
4795.853185109414
 21
998.1236161812803
 31
0.0
 11
4795.703136209975
 21
998.1476683889219
 31
0.0
 11
4795.490039566733
 21
998.1816685959672
 31
0.0
 11
4795.27543798955
 21
998.2157293430622
 31
0.0
 11
4795.061150897712
 21
998.2495645446379
 31
0.0
 11
4794.848997710507
 21
998.2828881151256
 31
0.0
 11
4794.64079784722
 21
998.3154139689558
 31
0.0
  0
SPLINE
  5
1E9
330
1F
100
AcDbEntity
  8
0
  6
Continuous
 62
     2
100
AcDbSpline
210
0.0
220
0.0
230
1.0
 70
     8
 71
     3
 72
    31
 73
    27
 74
    25
 42
0.0000000001
 43
0.0000000001
 44
0.00000001
 40
0.0
 40
0.0
 40
0.0
 40
0.0
 40
0.0101848179353279
 40
0.0356131337030709
 40
0.0768988572822847
 40
0.1340954235998294
 40
0.2072999243744726
 40
0.2961521144713422
 40
0.4003379182013324
 40
0.519538846702966
 40
0.7004182063074968
 40
0.9063940672827135
 40
1.13666624541197
 40
1.390174612121893
 40
1.665636289928781
 40
1.961533421068245
 40
2.275409909961305
 40
2.606998644712265
 40
2.955212098976243
 40
3.31898586768422
 40
3.696286907182555
 40
4.085090214584604
 40
4.683640818154417
 40
5.298483770608193
 40
5.923277492264517
 40
6.552971070869316
 40
6.552971070869316
 40
6.552971070869316
 40
6.552971070869316
 10
4794.00410881776
 20
1036.273067857712
 30
0.0
 10
4794.006253429542
 20
1036.270398439354
 30
0.0
 10
4794.01375246846
 20
1036.261064315415
 30
0.0
 10
4794.018371565411
 20
1036.234971580914
 30
0.0
 10
4794.028258533303
 20
1036.195320905841
 30
0.0
 10
4794.037944117681
 20
1036.138681596888
 30
0.0
 10
4794.0498192795
 20
1036.066657542788
 30
0.0
 10
4794.062804217861
 20
1035.97882945577
 30
0.0
 10
4794.077217272031
 20
1035.875763345605
 30
0.0
 10
4794.09493386426
 20
1035.742172647914
 30
0.0
 10
4794.116080848673
 20
1035.574818657773
 30
0.0
 10
4794.140709065996
 20
1035.370587607299
 30
0.0
 10
4794.167133693591
 20
1035.142191748046
 30
0.0
 10
4794.195146833082
 20
1034.890665415493
 30
0.0
 10
4794.224556886713
 20
1034.617286544613
 30
0.0
 10
4794.255118961155
 20
1034.323794539213
 30
0.0
 10
4794.286627230023
 20
1034.011592511399
 30
0.0
 10
4794.318888007221
 20
1033.681940605407
 30
0.0
 10
4794.351752283613
 20
1033.335637380194
 30
0.0
 10
4794.385015551843
 20
1032.974067645357
 30
0.0
 10
4794.418476304428
 20
1032.598930444163
 30
0.0
 10
4794.457647196527
 20
1032.145734630072
 30
0.0
 10
4794.501820608572
 20
1031.613497302177
 30
0.0
 10
4794.550029224972
 20
1031.002666421955
 30
0.0
 10
4794.596775109116
 20
1030.381309829362
 30
0.0
 10
4794.626089145477
 20
1029.964175622567
 30
0.0
 10
4794.640803411978
 20
1029.754793884402
 30
0.0
 11
4794.00410881776
 21
1036.273067857712
 31
0.0
 11
4794.010104284444
 21
1036.26483469941
 31
0.0
 11
4794.017610222402
 21
1036.240539429538
 31
0.0
 11
4794.026584387123
 21
1036.200240852156
 31
0.0
 11
4794.036984534094
 21
1036.143997771324
 31
0.0
 11
4794.048793510028
 21
1036.071752030819
 31
0.0
 11
4794.061949608027
 21
1035.983879232011
 31
0.0
 11
4794.076410646995
 21
1035.880701908674
 31
0.0
 11
4794.09213444583
 21
1035.762542594586
 31
0.0
 11
4794.11487312502
 21
1035.583098187597
 31
0.0
 11
4794.139584068335
 21
1035.378609986018
 31
0.0
 11
4794.166088540737
 21
1035.149868234335
 31
0.0
 11
4794.19418595772
 21
1034.897921757577
 31
0.0
 11
4794.22367819894
 21
1034.624043420266
 31
0.0
 11
4794.25434699621
 21
1034.329739942389
 31
0.0
 11
4794.285881002153
 21
1034.017451523217
 31
0.0
 11
4794.318190730806
 21
1033.68744065908
 31
0.0
 11
4794.351099572054
 21
1033.340785761671
 31
0.0
 11
4794.384437795834
 21
1032.978542863003
 31
0.0
 11
4794.417966464828
 21
1032.602734530522
 31
0.0
 11
4794.451453114198
 21
1032.21537596774
 31
0.0
 11
4794.50097448991
 21
1031.618877469518
 31
0.0
 11
4794.54939638856
 21
1031.005944213842
 31
0.0
 11
4794.596142433053
 21
1030.382901677617
 31
0.0
 11
4794.640803411978
 21
1029.754793884402
 31
0.0
  0
SPLINE
  5
1EA
330
1F
100
AcDbEntity
  8
0
  6
Continuous
 62
     2
100
AcDbSpline
210
0.0
220
0.0
230
1.0
 70
     8
 71
     3
 72
    23
 73
    19
 74
    17
 42
0.0000000001
 43
0.0000000001
 44
0.00000001
 40
0.0
 40
0.0
 40
0.0
 40
0.0
 40
0.6342501421034827
 40
1.263323491182408
 40
1.882037204857606
 40
2.483094418317966
 40
3.06119476242332
 40
3.609802988150784
 40
4.123001267852829
 40
4.595992763825874
 40
5.023396367358773
 40
5.402362306773609
 40
5.729686449042303
 40
6.002106785208127
 40
6.217034840466342
 40
6.371942964244018
 40
6.444309915924973
 40
6.496091088433297
 40
6.496091088433297
 40
6.496091088433297
 40
6.496091088433297
 10
4779.481849191701
 20
997.786051951049
 30
0.0
 10
4779.481303812323
 20
997.5746359388576
 30
0.0
 10
4779.48021750499
 20
997.1535295064211
 30
0.0
 10
4779.478824114367
 20
996.5261853089356
 30
0.0
 10
4779.47755784043
 20
995.9099051819744
 30
0.0
 10
4779.4764925495
 20
995.3106156933284
 30
0.0
 10
4779.475679940159
 20
994.7346943256221
 30
0.0
 10
4779.475101012794
 20
994.1880590057963
 30
0.0
 10
4779.474732445362
 20
993.6764597923648
 30
0.0
 10
4779.474594467831
 20
993.205262003541
 30
0.0
 10
4779.474707676467
 20
992.7788083022011
 30
0.0
 10
4779.475053168707
 20
992.4009105674976
 30
0.0
 10
4779.47559593709
 20
992.0746740790457
 30
0.0
 10
4779.476375117331
 20
991.8031178369707
 30
0.0
 10
4779.477332718598
 20
991.5890337271329
 30
0.0
 10
4779.478643475608
 20
991.4416387614094
 30
0.0
 10
4779.480072058967
 20
991.3486283884773
 30
0.0
 10
4779.481326155456
 20
991.3072642304787
 30
0.0
 10
4779.4818492289
 20
991.2900115767239
 30
0.0
 11
4779.481849191701
 21
997.786051951049
 31
0.0
 11
4779.480251110914
 21
997.1518038222413
 31
0.0
 11
4779.478834034361
 21
996.5227320692469
 31
0.0
 11
4779.477574736802
 21
995.9040196371272
 31
0.0
 11
4779.476516388079
 21
995.3029633554441
 31
0.0
 11
4779.475700862169
 21
994.7248635865701
 31
0.0
 11
4779.475120509351
 21
994.1762556678099
 31
0.0
 11
4779.474760855039
 21
993.6630575141324
 31
0.0
 11
4779.47463625735
 21
993.1900660345705
 31
0.0
 11
4779.474760954056
 21
992.762662449228
 31
0.0
 11
4779.475119705441
 21
992.3836966796207
 31
0.0
 11
4779.475698175231
 21
992.0563730485082
 31
0.0
 11
4779.476511507259
 21
991.783953926478
 31
0.0
 11
4779.477606211339
 21
991.5690286590941
 31
0.0
 11
4779.479115692598
 21
991.414127889959
 31
0.0
 11
4779.480387613309
 21
991.3417721167733
 31
0.0
 11
4779.4818492289
 21
991.2900115767239
 31
0.0
  0
SPLINE
  5
1EB
330
1F
100
AcDbEntity
  8
0
  6
Continuous
 62
     2
100
AcDbSpline
210
0.0
220
0.0
230
1.0
 70
     8
 71
     3
 72
    31
 73
    27
 74
    25
 42
0.0000000001
 43
0.0000000001
 44
0.00000001
 40
0.0
 40
0.0
 40
0.0
 40
0.0
 40
0.6302185074263321
 40
1.255589783699529
 40
1.871121007090125
 40
2.470014025609817
 40
2.857921976781579
 40
3.23410739381114
 40
3.596711275636939
 40
3.94386151089373
 40
4.274624942446076
 40
4.588040503064809
 40
4.884625965972388
 40
5.160952619893387
 40
5.415277520674999
 40
5.64615093139012
 40
5.852533372539376
 40
6.033705147373152
 40
6.152938740746788
 40
6.257157870087278
 40
6.346024019096642
 40
6.419203133463725
 40
6.476322672710803
 40
6.517506824559282
 40
6.542839923667715
 40
6.55294979606359
 40
6.55294979606359
 40
6.55294979606359
 40
6.55294979606359
 10
4794.64079784722
 20
998.3154139689558
 30
0.0
 10
4794.626082922261
 20
998.1058568551023
 30
0.0
 10
4794.596766249984
 20
997.6883544045148
 30
0.0
 10
4794.549941715767
 20
997.0664050482189
 30
0.0
 10
4794.501660544996
 20
996.4550421704304
 30
0.0
 10
4794.457458398072
 20
995.9227619577621
 30
0.0
 10
4794.418315212988
 20
995.470122015605
 30
0.0
 10
4794.384936908559
 20
995.096041966186
 30
0.0
 10
4794.351774616608
 20
994.7355839136887
 30
0.0
 10
4794.319022162519
 20
994.3902941447102
 30
0.0
 10
4794.286866297323
 20
994.0614188777815
 30
0.0
 10
4794.255416922054
 20
993.749411234834
 30
0.0
 10
4794.224864129796
 20
993.4555521774356
 30
0.0
 10
4794.19541538157
 20
993.1813829644059
 30
0.0
 10
4794.167352426319
 20
992.9290965388527
 30
0.0
 10
4794.140867300433
 20
992.7000954662448
 30
0.0
 10
4794.116175608237
 20
992.4954354921961
 30
0.0
 10
4794.094973211859
 20
992.3278426248303
 30
0.0
 10
4794.0772123999
 20
992.1941373226495
 30
0.0
 10
4794.062768597081
 20
992.0910484303754
 30
0.0
 10
4794.049753609088
 20
992.0032178765681
 30
0.0
 10
4794.037855279235
 20
991.9312260736374
 30
0.0
 10
4794.028146219292
 20
991.8746637175216
 30
0.0
 10
4794.018265902317
 20
991.835096279936
 30
0.0
 10
4794.013643718868
 20
991.8091151762446
 30
0.0
 10
4794.006219264817
 20
991.799797582237
 30
0.0
 10
4794.004101488572
 20
991.7971398003848
 30
0.0
 11
4794.64079784722
 21
998.3154139689558
 31
0.0
 11
4794.596122932302
 21
997.6867809129686
 31
0.0
 11
4794.549311653262
 21
997.0631640936459
 31
0.0
 11
4794.500804781874
 21
996.4495471362557
 31
0.0
 11
4794.451226484492
 21
995.8527097714231
 31
0.0
 11
4794.417800095897
 21
995.4662446952159
 31
0.0
 11
4794.384359676763
 21
995.0915485431756
 31
0.0
 11
4794.351128708826
 21
994.7304706043797
 31
0.0
 11
4794.318335686645
 21
994.3848727115402
 31
0.0
 11
4794.2861350248
 21
994.0556804196665
 31
0.0
 11
4794.254686565209
 21
993.7438466369756
 31
0.0
 11
4794.223992639467
 21
993.448853722263
 31
0.0
 11
4794.194451979643
 21
993.1741106257449
 31
0.0
 11
4794.166295516863
 21
992.9213491398312
 31
0.0
 11
4794.139730673441
 21
992.6920091283436
 31
0.0
 11
4794.114959087374
 21
992.4871187172979
 31
0.0
 11
4794.092157081515
 21
992.3073875833081
 31
0.0
 11
4794.076403679548
 21
992.1891992585241
 31
0.0
 11
4794.061910455866
 21
992.0859927985141
 31
0.0
 11
4794.048723199648
 21
991.9981105550677
 31
0.0
 11
4794.036887700066
 21
991.9258948799743
 31
0.0
 11
4794.026470811896
 21
991.8697332364384
 31
0.0
 11
4794.017498800668
 21
991.8295382444865
 31
0.0
 11
4794.010024686266
 21
991.8053328003812
 31
0.0
 11
4794.004101488572
 21
991.7971398003848
 31
0.0
  0
SPLINE
  5
1EC
330
1F
100
AcDbEntity
  8
0
  6
Continuous
 62
     2
100
AcDbSpline
210
0.0
220
0.0
230
1.0
 70
     8
 71
     3
 72
    23
 73
    19
 74
    17
 42
0.0000000001
 43
0.0000000001
 44
0.00000001
 40
0.0
 40
0.0
 40
0.0
 40
0.0
 40
0.0531529323712063
 40
0.1538014635507058
 40
0.3106233096161213
 40
0.5244564882752694
 40
0.7949856012131276
 40
1.119187248836877
 40
1.493861310843754
 40
1.917045700644267
 40
2.388935421322671
 40
2.901943757035198
 40
3.45066454244656
 40
4.030331163255713
 40
4.638071435786044
 40
5.265134715742771
 40
5.902807842477397
 40
6.545810022367079
 40
6.545810022367079
 40
6.545810022367079
 40
6.545810022367079
 10
4680.991729154208
 20
870.3035195292154
 30
0.0
 10
4680.983216241862
 20
870.3195483843373
 30
0.0
 10
4680.958583576845
 20
870.3659289181444
 30
0.0
 10
4680.853702398104
 20
870.4019100221692
 30
0.0
 10
4680.708472621034
 20
870.4517424522079
 30
0.0
 10
4680.497928220441
 20
870.498258983665
 30
0.0
 10
4680.233679895009
 20
870.5478832218918
 30
0.0
 10
4679.913976325019
 20
870.5968274752177
 30
0.0
 10
4679.543179309116
 20
870.6453437562279
 30
0.0
 10
4679.122511077108
 20
870.6924513671289
 30
0.0
 10
4678.655316285416
 20
870.7375587346328
 30
0.0
 10
4678.145857871331
 20
870.7799874728707
 30
0.0
 10
4677.600102073395
 20
870.8189247573338
 30
0.0
 10
4677.022428154329
 20
870.8537137697153
 30
0.0
 10
4676.418338253998
 20
870.8837188227114
 30
0.0
 10
4675.794663118792
 20
870.9084708045507
 30
0.0
 10
4675.159040596867
 20
870.9281609379482
 30
0.0
 10
4674.732220949517
 20
870.9361864107585
 30
0.0
 10
4674.517923100369
 20
870.9402158446715
 30
0.0
 11
4680.991729154208
 21
870.3035195292154
 31
0.0
 11
4680.962930064778
 21
870.3481944289656
 31
0.0
 11
4680.873829951305
 21
870.3950057161477
 31
0.0
 11
4680.724698555049
 21
870.4435126028143
 31
0.0
 11
4680.516692259769
 21
870.493090918834
 31
0.0
 11
4680.250853791602
 21
870.5432497644094
 31
0.0
 11
4679.930521456116
 21
870.5931887588359
 31
0.0
 11
4679.559062352048
 21
870.6421661694019
 31
0.0
 11
4679.138548233335
 21
870.6896309324773
 31
0.0
 11
4678.668869122213
 21
870.735253745386
 31
0.0
 11
4678.157646629844
 21
870.7780219088485
 31
0.0
 11
4677.610326819658
 21
870.8172076935297
 31
0.0
 11
4677.031714940356
 21
870.8521602958759
 31
0.0
 11
4676.424727806379
 21
870.8824069161942
 31
0.0
 11
4675.798163987681
 21
870.9074296692178
 31
0.0
 11
4675.160785695447
 21
870.9268185616236
 31
0.0
 11
4674.517923100369
 21
870.9402158446715
 31
0.0
  0
SPLINE
  5
1ED
330
1F
100
AcDbEntity
  8
0
  6
Continuous
 62
     2
100
AcDbSpline
210
0.0
220
0.0
230
1.0
 70
     8
 71
     3
 72
    15
 73
    11
 74
     9
 42
0.0000000001
 43
0.0000000001
 44
0.00000001
 40
0.0
 40
0.0
 40
0.0
 40
0.0
 40
0.5378378750545756
 40
1.105804716607984
 40
1.695313351436349
 40
2.295313512183762
 40
2.893835282877113
 40
3.47927319418882
 40
4.041486356744413
 40
4.573019734203549
 40
4.573019734203549
 40
4.573019734203549
 40
4.573019734203549
 10
4677.993495694699
 20
867.4448259039405
 30
0.0
 10
4678.172993016431
 20
867.4540479392958
 30
0.0
 10
4678.542042862482
 20
867.4730086162315
 30
0.0
 10
4679.090020570979
 20
867.6301065700791
 30
0.0
 10
4679.617408353171
 20
867.8920531634836
 30
0.0
 10
4680.091632577571
 20
868.260008753521
 30
0.0
 10
4680.481104706602
 20
868.7150069339167
 30
0.0
 10
4680.765195807413
 20
869.2265639085342
 30
0.0
 10
4680.943841861601
 20
869.7624286166354
 30
0.0
 10
4680.976068040018
 20
870.126560546837
 30
0.0
 10
4680.991729154208
 20
870.3035195292154
 30
0.0
 11
4677.993495694699
 21
867.4448259039405
 31
0.0
 11
4678.529238907601
 21
867.4922473091547
 31
0.0
 11
4679.076606187537
 21
867.6438236726134
 31
0.0
 11
4679.60407522463
 21
867.907066612587
 31
0.0
 11
4680.077936521912
 21
868.2751096315872
 31
0.0
 11
4680.467130720367
 21
868.7298141355049
 31
0.0
 11
4680.752159253544
 21
869.2411812084339
 31
0.0
 11
4680.924875284739
 21
869.7762072009979
 31
0.0
 11
4680.991729154208
 21
870.3035195292154
 31
0.0
  0
SPLINE
  5
1EE
330
1F
100
AcDbEntity
  8
0
  6
Continuous
 62
     2
100
AcDbSpline
210
0.0
220
0.0
230
1.0
 70
     8
 71
     3
 72
    15
 73
    11
 74
     9
 42
0.0000000001
 43
0.0000000001
 44
0.00000001
 40
0.0
 40
0.0
 40
0.0
 40
0.0
 40
0.1290741121710621
 40
0.3515341763508472
 40
0.6833424977600647
 40
1.122508916573969
 40
1.653815685548067
 40
2.265222379234076
 40
2.930296496220007
 40
3.621707208454599
 40
3.621707208454599
 40
3.621707208454599
 40
3.621707208454599
 10
4677.993495694699
 20
867.4448259039405
 30
0.0
 10
4677.976086084138
 20
867.4854139504835
 30
0.0
 10
4677.928670897572
 20
867.5959557568236
 30
0.0
 10
4677.704391411462
 20
867.6922493543639
 30
0.0
 10
4677.400332127322
 20
867.804249751104
 30
0.0
 10
4676.973122280818
 20
867.9012688915384
 30
0.0
 10
4676.454076558341
 20
867.9880855679987
 30
0.0
 10
4675.854421619053
 20
868.0540075089699
 30
0.0
 10
4675.199708245536
 20
868.0971805490447
 30
0.0
 10
4674.747496647749
 20
868.1028250719316
 30
0.0
 10
4674.517000931047
 20
868.1057021285013
 30
0.0
 11
4677.993495694699
 21
867.4448259039405
 31
0.0
 11
4677.932104506608
 21
867.5583655378025
 31
0.0
 11
4677.742257412129
 21
867.6743248447718
 31
0.0
 11
4677.43005249752
 21
867.7866852179025
 31
0.0
 11
4677.003334295034
 21
867.8905058279997
 31
0.0
 11
4676.479472812823
 21
867.9791400776629
 31
0.0
 11
4675.871933129964
 21
868.0477963143537
 31
0.0
 11
4675.208251155799
 21
868.0908058278683
 31
0.0
 11
4674.517000931047
 21
868.1057021285013
 31
0.0
  0
SPLINE
  5
1EF
330
1F
100
AcDbEntity
  8
0
  6
Continuous
 62
     2
100
AcDbSpline
210
0.0
220
0.0
230
1.0
 70
     8
 71
     3
 72
     9
 73
     5
 74
     3
 42
0.0000000001
 43
0.0000000001
 44
0.00000001
 40
0.0
 40
0.0
 40
0.0
 40
0.0
 40
0.5825266718909378
 40
1.000368264404572
 40
1.000368264404572
 40
1.000368264404572
 40
1.000368264404572
 10
4677.993495694699
 20
867.4448259039405
 30
0.0
 10
4677.986967235666
 20
867.2507601254708
 30
0.0
 10
4677.975755966639
 20
866.9174925596133
 30
0.0
 10
4677.964586437775
 20
866.584223592359
 30
0.0
 10
4677.959921062139
 20
866.4450212196249
 30
0.0
 11
4677.993495694699
 21
867.4448259039405
 31
0.0
 11
4677.973924471165
 21
866.862628093335
 31
0.0
 11
4677.959921062139
 21
866.4450212196249
 31
0.0
  0
SPLINE
  5
1F0
330
1F
100
AcDbEntity
  8
0
  6
Continuous
 62
     2
100
AcDbSpline
210
0.0
220
0.0
230
1.0
 70
     8
 71
     3
 72
    23
 73
    19
 74
    17
 42
0.0000000001
 43
0.0000000001
 44
0.00000001
 40
0.0
 40
0.0
 40
0.0
 40
0.0
 40
0.6432613647006696
 40
1.281240933622113
 40
1.908711615239871
 40
2.516593422947433
 40
3.095031191832397
 40
3.642300325903232
 40
4.154102816258989
 40
4.62541725493745
 40
5.049867243022784
 40
5.425919301820332
 40
5.751073827801727
 40
6.022111380497341
 40
6.235774709237523
 40
6.392353326210664
 40
6.492765282526532
 40
6.545846190615377
 40
6.545846190615377
 40
6.545846190615377
 40
6.545846190615377
 10
4544.449675399327
 20
870.9402084545859
 30
0.0
 10
4544.235292060135
 20
870.9361346959488
 30
0.0
 10
4543.808285675588
 20
870.9280206281592
 30
0.0
 10
4543.17233801494
 20
870.9083676370959
 30
0.0
 10
4542.548374874589
 20
870.8836821672039
 30
0.0
 10
4541.944507191163
 20
870.8537700377749
 30
0.0
 10
4541.367676769707
 20
870.8190499169186
 30
0.0
 10
4540.823214510336
 20
870.7801854013624
 30
0.0
 10
4540.314831309468
 20
870.7378304986282
 30
0.0
 10
4539.847808971437
 20
870.6927257855968
 30
0.0
 10
4539.426455439196
 20
870.6455416400017
 30
0.0
 10
4539.054468425737
 20
870.596884454375
 30
0.0
 10
4538.733828352077
 20
870.5477884620811
 30
0.0
 10
4538.469163235105
 20
870.4980734426724
 30
0.0
 10
4538.258578728797
 20
870.4515683719831
 30
0.0
 10
4538.113550774455
 20
870.4018414511102
 30
0.0
 10
4538.00884604023
 20
870.3658755633788
 30
0.0
 10
4537.98434261559
 20
870.319539346795
 30
0.0
 10
4537.975868840368
 20
870.303515354649
 30
0.0
 11
4544.449675399327
 21
870.9402084545859
 31
0.0
 11
4543.806555738702
 21
870.9267071422935
 31
0.0
 11
4543.168870419035
 21
870.9073328437953
 31
0.0
 11
4542.541896574785
 21
870.8823677698606
 31
0.0
 11
4541.934764655258
 21
870.8521829320581
 31
0.0
 11
4541.35737820121
 21
870.8173241432864
 31
0.0
 11
4540.811507280438
 21
870.7782288371516
 31
0.0
 11
4540.301487706822
 21
870.7355460108271
 31
0.0
 11
4539.832382002172
 21
870.689970381679
 31
0.0
 11
4539.410609845437
 21
870.6423674386166
 31
0.0
 11
4539.037783525921
 21
870.5932178058351
 31
0.0
 11
4538.716510855286
 21
870.5431245241584
 31
0.0
 11
4538.450174111315
 21
870.4928642636914
 31
0.0
 11
4538.24232885302
 21
870.4433428879794
 31
0.0
 11
4538.093425585681
 21
870.3949209893279
 31
0.0
 11
4538.004558355922
 21
870.3481751184281
 31
0.0
 11
4537.975868840368
 21
870.303515354649
 31
0.0
  0
SPLINE
  5
1F1
330
1F
100
AcDbEntity
  8
0
  6
Continuous
 62
     2
100
AcDbSpline
210
0.0
220
0.0
230
1.0
 70
     8
 71
     3
 72
    15
 73
    11
 74
     9
 42
0.0000000001
 43
0.0000000001
 44
0.00000001
 40
0.0
 40
0.0
 40
0.0
 40
0.0
 40
0.1318099579217191
 40
0.3442137584501944
 40
0.6368733403241388
 40
1.00187511494465
 40
1.424652226241066
 40
1.88538657901515
 40
2.362255658843505
 40
2.834514130455516
 40
2.834514130455516
 40
2.834514130455516
 40
2.834514130455516
 10
4674.517000931047
 20
868.1057021285013
 30
0.0
 10
4674.517087163245
 20
868.1496387039186
 30
0.0
 10
4674.517312353432
 20
868.2643764217382
 30
0.0
 10
4674.517324544337
 20
868.4766676266315
 30
0.0
 10
4674.517329643727
 20
868.7666893069222
 30
0.0
 10
4674.517276408457
 20
869.1268354742717
 30
0.0
 10
4674.51726065642
 20
869.543006550411
 30
0.0
 10
4674.517326824547
 20
869.9964667299311
 30
0.0
 10
4674.517513334296
 20
870.4664206750645
 30
0.0
 10
4674.517786954737
 20
870.7827964110857
 30
0.0
 10
4674.517923100369
 20
870.9402158446715
 30
0.0
 11
4674.517000931047
 21
868.1057021285013
 31
0.0
 11
4674.517227572865
 21
868.2375118915722
 31
0.0
 11
4674.517321821768
 21
868.4499156711904
 31
0.0
 11
4674.517322039585
 21
868.7425752530643
 31
0.0
 11
4674.517285454166
 21
869.1075770258512
 31
0.0
 11
4674.517273527838
 21
869.5303541369794
 31
0.0
 11
4674.517344978355
 21
869.9910884842133
 31
0.0
 11
4674.517551319963
 21
870.4679575193995
 31
0.0
 11
4674.517923100369
 21
870.9402158446715
 31
0.0
  0
SPLINE
  5
1F2
330
1F
100
AcDbEntity
  8
0
  6
Continuous
 62
     2
100
AcDbSpline
210
0.0
220
0.0
230
1.0
 70
     8
 71
     3
 72
    15
 73
    11
 74
     9
 42
0.0000000001
 43
0.0000000001
 44
0.00000001
 40
0.0
 40
0.0
 40
0.0
 40
0.0
 40
0.1585867437842437
 40
0.410026109677153
 40
0.680501297763419
 40
1.001871688887979
 40
1.421188640521143
 40
1.88538050588412
 40
2.352975434628923
 40
2.834505475263575
 40
2.834505475263575
 40
2.834505475263575
 40
2.834505475263575
 10
4544.449675298757
 20
868.1057029793224
 30
0.0
 10
4544.449675336904
 20
868.1585652272503
 30
0.0
 10
4544.449675435535
 20
868.2952405971427
 30
0.0
 10
4544.449675432137
 20
868.5220743630641
 30
0.0
 10
4544.449675448469
 20
868.8031693447649
 30
0.0
 10
4544.449675445975
 20
869.1402235217132
 30
0.0
 10
4544.449675447087
 20
869.5418499244199
 30
0.0
 10
4544.449675437382
 20
869.9922178396671
 30
0.0
 10
4544.449675409096
 20
870.463323451248
 30
0.0
 10
4544.449675402615
 20
870.779698441041
 30
0.0
 10
4544.449675399327
 20
870.9402084545859
 30
0.0
 11
4544.449675298757
 21
868.1057029793224
 31
0.0
 11
4544.449675398139
 21
868.2642897231066
 31
0.0
 11
4544.449675435182
 21
868.5157290889995
 31
0.0
 11
4544.449675444785
 21
868.7862042770857
 31
0.0
 11
4544.449675446689
 21
869.1075746682103
 31
0.0
 11
4544.449675445433
 21
869.5268916198435
 31
0.0
 11
4544.449675434439
 21
869.9910834852064
 31
0.0
 11
4544.449675412412
 21
870.4586784139512
 31
0.0
 11
4544.449675399327
 21
870.9402084545859
 31
0.0
  0
SPLINE
  5
1F3
330
1F
100
AcDbEntity
  8
0
  6
Continuous
 62
     2
100
AcDbSpline
210
0.0
220
0.0
230
1.0
 70
     8
 71
     3
 72
    23
 73
    19
 74
    17
 42
0.0000000001
 43
0.0000000001
 44
0.00000001
 40
0.0
 40
0.0
 40
0.0
 40
0.0
 40
0.0516703580761246
 40
0.1238199033428746
 40
0.2782214864422808
 40
0.4926838153484329
 40
0.7656885203063557
 40
1.094247953501319
 40
1.474932702128193
 40
1.903819388960763
 40
2.375760514561848
 40
2.887069566704616
 40
3.43352230296923
 40
4.00985503760822
 40
4.611419733593042
 40
5.231098693820607
 40
5.861033905760031
 40
6.496091727074647
 40
6.496091727074647
 40
6.496091727074647
 40
6.496091727074647
 10
4681.521091307213
 20
885.4624682210622
 30
0.0
 10
4681.503875595033
 20
885.4629908340453
 30
0.0
 10
4681.462620842841
 20
885.4642431940341
 30
0.0
 10
4681.369888755441
 20
885.4656712328275
 30
0.0
 10
4681.222890345239
 20
885.466981018952
 30
0.0
 10
4681.008935538388
 20
885.4679389013361
 30
0.0
 10
4680.736927987447
 20
885.4687195251687
 30
0.0
 10
4680.409512009537
 20
885.4692638312201
 30
0.0
 10
4680.030135213596
 20
885.4696097887764
 30
0.0
 10
4679.602964338156
 20
885.4697228961043
 30
0.0
 10
4679.132252054249
 20
885.4695849068372
 30
0.0
 10
4678.622351203195
 20
885.4692171059703
 30
0.0
 10
4678.077653324885
 20
885.4686398542506
 30
0.0
 10
4677.502870495565
 20
885.4678283864944
 30
0.0
 10
4676.903679300332
 20
885.466763240293
 30
0.0
 10
4676.286620976432
 20
885.4654960098277
 30
0.0
 10
4675.658398516096
 20
885.4641016086205
 30
0.0
 10
4675.236735570891
 20
885.4630140873705
 30
0.0
 10
4675.025050332893
 20
885.4624681247784
 30
0.0
 11
4681.521091307213
 21
885.4624682210622
 31
0.0
 11
4681.469441592164
 21
885.4639286453304
 31
0.0
 11
4681.39730323781
 21
885.4651993590179
 31
0.0
 11
4681.242909016898
 21
885.4667071430291
 31
0.0
 11
4681.028449477546
 21
885.4678009898108
 31
0.0
 11
4680.75544599067
 21
885.4686165157068
 31
0.0
 11
4680.42688707003
 21
885.4691968685311
 31
0.0
 11
4680.046202491296
 21
885.4695565228811
 31
0.0
 11
4679.617315822562
 21
885.4696811205752
 31
0.0
 11
4679.145374713435
 21
885.4695564237995
 31
0.0
 11
4678.634065787148
 21
885.4691976723896
 31
0.0
 11
4678.087613357065
 21
885.4686192027025
 31
0.0
 11
4677.511281196321
 21
885.4678058707171
 31
0.0
 11
4676.909717432756
 21
885.4667467100719
 31
0.0
 11
4676.290039754891
 21
885.4654860339323
 31
0.0
 11
4675.660106139445
 21
885.4640678054142
 31
0.0
 11
4675.025050332893
 21
885.4624681247784
 31
0.0
  0
SPLINE
  5
1F4
330
1F
100
AcDbEntity
  8
0
  6
Continuous
 62
     2
100
AcDbSpline
210
0.0
220
0.0
230
1.0
 70
     8
 71
     3
 72
    15
 73
    11
 74
     9
 42
0.0000000001
 43
0.0000000001
 44
0.00000001
 40
0.0
 40
0.0
 40
0.0
 40
0.0
 40
0.5315683139356837
 40
1.093843661838504
 40
1.679350844498431
 40
2.277927414881353
 40
2.877953542995818
 40
3.467458584111343
 40
4.035404671712529
 40
4.573225001632469
 40
4.573225001632469
 40
4.573225001632469
 40
4.573225001632469
 10
4537.975868840368
 20
870.303515354649
 30
0.0
 10
4537.991530761787
 20
870.1265448573606
 30
0.0
 10
4538.023759344693
 20
869.7623808323119
 30
0.0
 10
4538.202404223994
 20
869.226458428629
 30
0.0
 10
4538.486488737958
 20
868.7148276009384
 30
0.0
 10
4538.875952481116
 20
868.2597562803629
 30
0.0
 10
4539.350171175314
 20
867.8917483076251
 30
0.0
 10
4539.877557787671
 20
867.6297933891043
 30
0.0
 10
4540.425540288645
 20
867.4727399622957
 30
0.0
 10
4540.794583272023
 20
867.4538679197224
 30
0.0
 10
4540.974077617241
 20
867.444688975596
 30
0.0
 11
4537.975868840368
 21
870.303515354649
 31
0.0
 11
4538.042723183373
 21
869.7761678703449
 31
0.0
 11
4538.215439217123
 21
869.2410765337072
 31
0.0
 11
4538.500466917239
 21
868.7296296927615
 31
0.0
 11
4538.8896590343
 21
868.274851277895
 31
0.0
 11
4539.363516821371
 21
867.9067614083631
 31
0.0
 11
4539.890980891611
 21
867.643516563957
 31
0.0
 11
4540.438341821116
 21
867.4919950431325
 31
0.0
 11
4540.974077617241
 21
867.444688975596
 31
0.0
  0
SPLINE
  5
1F5
330
1F
100
AcDbEntity
  8
0
  6
Continuous
 62
     2
100
AcDbSpline
210
0.0
220
0.0
230
1.0
 70
     8
 71
     3
 72
     9
 73
     5
 74
     3
 42
0.0000000001
 43
0.0000000001
 44
0.00000001
 40
0.0
 40
0.0
 40
0.0
 40
0.0
 40
0.4177870139385629
 40
1.000235011599911
 40
1.000235011599911
 40
1.000235011599911
 40
1.000235011599911
 10
4541.00767691823
 20
866.4450184474366
 30
0.0
 10
4541.00300405319
 20
866.5842023657697
 30
0.0
 10
4540.991816622608
 20
866.9174262897401
 30
0.0
 10
4540.980605802668
 20
867.2506494276757
 30
0.0
 10
4540.974077617241
 20
867.444688975596
 30
0.0
 11
4541.00767691823
 21
866.4450184474366
 31
0.0
 11
4540.993654242511
 21
866.8625700653013
 31
0.0
 11
4540.974077617241
 21
867.444688975596
 31
0.0
  0
SPLINE
  5
1F6
330
1F
100
AcDbEntity
  8
0
  6
Continuous
 62
     2
100
AcDbSpline
210
0.0
220
0.0
230
1.0
 70
     8
 71
     3
 72
    15
 73
    11
 74
     9
 42
0.0000000001
 43
0.0000000001
 44
0.00000001
 40
0.0
 40
0.0
 40
0.0
 40
0.0
 40
0.6908944575707127
 40
1.355472985196716
 40
1.966222932899085
 40
2.497087661819124
 40
2.937076340143112
 40
3.269400593157622
 40
3.491856563866495
 40
3.620903798563502
 40
3.620903798563502
 40
3.620903798563502
 40
3.620903798563502
 10
4544.449675298757
 20
868.1057029793224
 30
0.0
 10
4544.219351645525
 20
868.1028295252589
 30
0.0
 10
4543.76747728702
 20
868.0971920659995
 30
0.0
 10
4543.113319174002
 20
868.0540557690194
 30
0.0
 10
4542.514192225535
 20
867.988195990149
 30
0.0
 10
4541.995236445046
 20
867.9014164459585
 30
0.0
 10
4541.56771364564
 20
867.8043614165026
 30
0.0
 10
4541.263267112532
 20
867.692209779135
 30
0.0
 10
4541.038796132945
 20
867.5958519853444
 30
0.0
 10
4540.991457157012
 20
867.4852823592839
 30
0.0
 10
4540.974077617241
 20
867.444688975596
 30
0.0
 11
4544.449675298757
 21
868.1057029793224
 31
0.0
 11
4543.758941130176
 21
868.0908214519599
 31
0.0
 11
4543.095753658755
 21
868.0478447474391
 31
0.0
 11
4542.488865753742
 21
867.9792694649545
 31
0.0
 11
4541.965435102679
 21
867.8907386006233
 31
0.0
 11
4541.537911223706
 21
867.7867512458106
 31
0.0
 11
4541.225221031255
 21
867.6742156839342
 31
0.0
 11
4541.03538753298
 21
867.5582419721
 31
0.0
 11
4540.974077617241
 21
867.444688975596
 31
0.0
  0
SPLINE
  5
1F7
330
1F
100
AcDbEntity
  8
0
  6
Continuous
 62
     2
100
AcDbSpline
210
0.0
220
0.0
230
1.0
 70
     8
 71
     3
 72
    19
 73
    15
 74
    13
 42
0.0000000001
 43
0.0000000001
 44
0.00000001
 40
0.0
 40
0.0
 40
0.0
 40
0.0
 40
0.0068423172660594
 40
0.017654945582377
 40
0.0364081960071048
 40
0.0564964562478579
 40
0.0900972547658082
 40
0.1403303396280098
 40
0.198798713123171
 40
0.2528596961046914
 40
0.2966319344462464
 40
0.3704204978694154
 40
0.4338923870225957
 40
0.4825503059550827
 40
0.4825503059550827
 40
0.4825503059550827
 40
0.4825503059550827
 10
4675.025057282976
 20
885.9450184306578
 30
0.0
 10
4675.025057103902
 20
885.9427376582428
 30
0.0
 10
4675.025056641847
 20
885.9368526763998
 30
0.0
 10
4675.025056114562
 20
885.9247166110736
 30
0.0
 10
4675.025055651214
 20
885.9081652314192
 30
0.0
 10
4675.025055121158
 20
885.8840177950309
 30
0.0
 10
4675.025054479453
 20
885.8493770804964
 30
0.0
 10
4675.02505374852
 20
885.8019429948765
 30
0.0
 10
4675.025053032492
 20
885.7476888477686
 30
0.0
 10
4675.025052426696
 20
885.6955883161659
 30
0.0
 10
4675.025051822159
 20
885.6383810545873
 30
0.0
 10
4675.025051251865
 20
885.5780368242837
 30
0.0
 10
4675.025050729877
 20
885.5160640337829
 30
0.0
 10
4675.02505045303
 20
885.4786874310889
 30
0.0
 10
4675.025050332893
 20
885.4624681247784
 30
0.0
 11
4675.025057282976
 21
885.9450184306578
 31
0.0
 11
4675.025056776753
 21
885.9381761134105
 31
0.0
 11
4675.025056249931
 21
885.927363485107
 31
0.0
 11
4675.025055681913
 21
885.9086102346909
 31
0.0
 11
4675.025055228612
 21
885.8885219744552
 31
0.0
 11
4675.025054596139
 21
885.8549211759432
 31
0.0
 11
4675.025053807935
 21
885.8046880910872
 31
0.0
 11
4675.025053029003
 21
885.7462197175972
 31
0.0
 11
4675.025052397374
 21
885.6921587346194
 31
0.0
 11
4675.025051933958
 21
885.6483864962803
 31
0.0
 11
4675.025051232956
 21
885.5745979328605
 31
0.0
 11
4675.025050700452
 21
885.5111260437095
 31
0.0
 11
4675.025050332893
 21
885.4624681247784
 31
0.0
  0
SPLINE
  5
1F8
330
1F
100
AcDbEntity
  8
0
  6
Continuous
 62
     2
100
AcDbSpline
210
0.0
220
0.0
230
1.0
 70
     8
 71
     3
 72
    20
 73
    16
 74
    14
 42
0.0000000001
 43
0.0000000001
 44
0.00000001
 40
0.0
 40
0.0
 40
0.0
 40
0.0
 40
0.0023021671911499
 40
0.0091867841960086
 40
0.0217235218196628
 40
0.0364084235799657
 40
0.071053142739966
 40
0.1077978348523485
 40
0.1403304234940308
 40
0.1652364440109743
 40
0.1994300614675036
 40
0.243149257334786
 40
0.2966320131482257
 40
0.387528004207732
 40
0.4825505977268097
 40
0.4825505977268097
 40
0.4825505977268097
 40
0.4825505977268097
 10
4543.942545983929
 20
885.9450184306736
 30
0.0
 10
4543.942533603592
 20
885.9442511376542
 30
0.0
 10
4543.942484199938
 20
885.9411892595206
 30
0.0
 10
4543.94246531078
 20
885.9339478995224
 30
0.0
 10
4543.942464474443
 20
885.922579257948
 30
0.0
 10
4543.942455630016
 20
885.9019570868999
 30
0.0
 10
4543.942456052483
 20
885.8732656794281
 30
0.0
 10
4543.942458831588
 20
885.8386250025271
 30
0.0
 10
4543.942464672607
 20
885.8072305716612
 30
0.0
 10
4543.942471720296
 20
885.7766864964327
 30
0.0
 10
4543.942481118404
 20
885.7424135532763
 30
0.0
 10
4543.94249515646
 20
885.698615032357
 30
0.0
 10
4543.942517565011
 20
885.6359157223844
 30
0.0
 10
4543.942553924515
 20
885.5561152818211
 30
0.0
 10
4543.942549242009
 20
885.4941424193091
 30
0.0
 10
4543.94254684879
 20
885.4624682209655
 30
0.0
 11
4543.942545983929
 21
885.9450184306736
 31
0.0
 11
4543.942511443736
 21
885.9427165226061
 31
0.0
 11
4543.942472287682
 21
885.9358320169516
 31
0.0
 11
4543.942463843288
 21
885.9232952821719
 31
0.0
 11
4543.942459129888
 21
885.908610381168
 31
0.0
 11
4543.942456409268
 21
885.8739656621149
 31
0.0
 11
4543.942459631724
 21
885.8372209701438
 31
0.0
 11
4543.942465420048
 21
885.804688382017
 31
0.0
 11
4543.942471158066
 21
885.7797823621611
 31
0.0
 11
4543.942480479327
 21
885.745588745975
 31
0.0
 11
4543.942494355092
 21
885.7018695523097
 31
0.0
 11
4543.94251375661
 21
885.6483868000154
 31
0.0
 11
4543.942545429253
 21
885.557490814474
 31
0.0
 11
4543.94254684879
 21
885.4624682209655
 31
0.0
  0
SPLINE
  5
1F9
330
1F
100
AcDbEntity
  8
0
  6
Continuous
 62
     2
100
AcDbSpline
210
0.0
220
0.0
230
1.0
 70
     8
 71
     3
 72
    23
 73
    19
 74
    17
 42
0.0000000001
 43
0.0000000001
 44
0.00000001
 40
0.0
 40
0.0
 40
0.0
 40
0.0
 40
0.6342501285589822
 40
1.263323513880088
 40
1.882037272135024
 40
2.483094523688282
 40
3.061194885408081
 40
3.609803120955416
 40
4.123001406400434
 40
4.595992903771003
 40
5.023396503173718
 40
5.402362432705023
 40
5.729686558371939
 40
6.002106867803779
 40
6.217035928868023
 40
6.371950466260085
 40
6.444324410703983
 40
6.49611125875732
 40
6.49611125875732
 40
6.49611125875732
 40
6.49611125875732
 10
4543.94254684879
 20
885.4624682209655
 30
0.0
 10
4543.731130841082
 20
885.4630135879895
 30
0.0
 10
4543.310024401018
 20
885.4640998707578
 30
0.0
 10
4542.682680181113
 20
885.4654932643597
 30
0.0
 10
4542.066400014518
 20
885.4667595374265
 30
0.0
 10
4541.467110492425
 20
885.4678248292284
 30
0.0
 10
4540.891189102934
 20
885.4686374360952
 30
0.0
 10
4540.344553771857
 20
885.4692163716413
 30
0.0
 10
4539.832954553416
 20
885.4695849113134
 30
0.0
 10
4539.361756761468
 20
885.4697229801454
 30
0.0
 10
4538.935303071129
 20
885.4696094782873
 30
0.0
 10
4538.557405325488
 20
885.4692648976102
 30
0.0
 10
4538.231168918038
 20
885.4687194011155
 30
0.0
 10
4537.959612175962
 20
885.4679479467145
 30
0.0
 10
4537.745526070257
 20
885.4669701366772
 30
0.0
 10
4537.598124646413
 20
885.4658293336913
 30
0.0
 10
4537.505104816461
 20
885.4647648189205
 30
0.0
 10
4537.463725859343
 20
885.4639451973092
 30
0.0
 10
4537.446466902455
 20
885.463603337218
 30
0.0
 11
4543.94254684879
 21
885.4624682209655
 31
0.0
 11
4543.30829873345
 21
885.464066271384
 31
0.0
 11
4542.679226944204
 21
885.4654833437173
 31
0.0
 11
4542.060514467505
 21
885.4667426413507
 31
0.0
 11
4541.459458147729
 21
885.4678009900857
 31
0.0
 11
4540.88135836124
 21
885.4686165159525
 31
0.0
 11
4540.33275043266
 21
885.4691968687221
 31
0.0
 11
4539.819552273239
 21
885.4695565229896
 31
0.0
 11
4539.34656079228
 21
885.4696811205747
 31
0.0
 11
4538.919157211068
 21
885.4695564236671
 31
0.0
 11
4538.540191451344
 21
885.4691976721024
 31
0.0
 11
4538.212867836834
 21
885.4686192022491
 31
0.0
 11
4537.940448741538
 21
885.4678058701321
 31
0.0
 11
4537.725522290237
 21
885.4667467095453
 31
0.0
 11
4537.570612882545
 21
885.4654860335443
 31
0.0
 11
4537.498244751627
 21
885.4645687212901
 31
0.0
 11
4537.446466902455
 21
885.463603337218
 31
0.0
  0
SPLINE
  5
1FA
330
1F
100
AcDbEntity
  8
0
  6
Continuous
 62
     2
100
AcDbSpline
210
0.0
220
0.0
230
1.0
 70
     8
 71
     3
 72
     9
 73
     5
 74
     3
 42
0.0000000001
 43
0.0000000001
 44
0.00000001
 40
0.0
 40
0.0
 40
0.0
 40
0.0
 40
6.140900779650879
 40
12.31945123331671
 40
12.31945123331671
 40
12.31945123331671
 40
12.31945123331671
 10
4680.976129154208
 20
1029.754793811205
 30
0.0
 10
4680.966316916793
 20
1027.707847995568
 30
0.0
 10
4680.94663228344
 20
1023.601406602388
 30
0.0
 10
4680.943876302392
 20
1019.494918918621
 30
0.0
 10
4680.94249410057
 20
1017.435400125049
 30
0.0
 11
4680.976129154208
 21
1029.754793811205
 31
0.0
 11
4680.950898776606
 21
1023.613944862276
 31
0.0
 11
4680.94249410057
 21
1017.435400125049
 31
0.0
  0
SPLINE
  5
1FB
330
1F
100
AcDbEntity
  8
0
  6
Continuous
 62
     2
100
AcDbSpline
210
0.0
220
0.0
230
1.0
 70
     8
 71
     3
 72
    25
 73
    21
 74
    19
 42
0.0000000001
 43
0.0000000001
 44
0.00000001
 40
0.0
 40
0.0
 40
0.0
 40
0.0
 40
0.0638614941435669
 40
0.1265532741517952
 40
0.1873033347929512
 40
0.230916287584583
 40
0.2723109400214213
 40
0.3112082743948309
 40
0.347329272999815
 40
0.3666658421764794
 40
0.3886432559678425
 40
0.4118967460676025
 40
0.4350615441694582
 40
0.4567728819652911
 40
0.4722176264901288
 40
0.4834331430827347
 40
0.491104064204442
 40
0.4959150223147614
 40
0.4985506498768498
 40
0.4996955793457884
 40
0.4996955793457884
 40
0.4996955793457884
 40
0.4996955793457884
 10
4682.005186885344
 20
997.7860511940312
 30
0.0
 10
4681.98389972063
 20
997.7860511938054
 30
0.0
 10
4681.941715295914
 20
997.7860511933582
 30
0.0
 10
4681.879280850981
 20
997.7860512490099
 30
0.0
 10
4681.823595919835
 20
997.7860513174892
 30
0.0
 10
4681.775010031211
 20
997.7860513839912
 30
0.0
 10
4681.733708384678
 20
997.7860514449127
 30
0.0
 10
4681.694904056205
 20
997.7860515069876
 30
0.0
 10
4681.663452422155
 20
997.7860515617454
 30
0.0
 10
4681.63764076163
 20
997.7860516101565
 30
0.0
 10
4681.616118270608
 20
997.7860516531134
 30
0.0
 10
4681.593319703276
 20
997.786051702318
 30
0.0
 10
4681.570609827943
 20
997.7860517566489
 30
0.0
 10
4681.550502867805
 20
997.7860518109858
 30
0.0
 10
4681.534379001499
 20
997.7860518633229
 30
0.0
 10
4681.522935274084
 20
997.7860519040646
 30
0.0
 10
4681.515036142146
 20
997.7860519399346
 30
0.0
 10
4681.509996973211
 20
997.7860519543448
 30
0.0
 10
4681.507133134834
 20
997.7860519730152
 30
0.0
 10
4681.505872949155
 20
997.7860519561559
 30
0.0
 10
4681.505491305999
 20
997.7860519510505
 30
0.0
 11
4682.005186885344
 21
997.7860511940312
 31
0.0
 11
4681.941325391201
 21
997.7860512030427
 31
0.0
 11
4681.878633611193
 21
997.7860512531784
 31
0.0
 11
4681.817883550551
 21
997.7860513261523
 31
0.0
 11
4681.77427059776
 21
997.7860513857962
 31
0.0
 11
4681.732875945323
 21
997.7860514470274
 31
0.0
 11
4681.69397861095
 21
997.7860515094183
 31
0.0
 11
4681.657857612345
 21
997.786051572541
 31
0.0
 11
4681.638521043168
 21
997.7860516088685
 31
0.0
 11
4681.616543629377
 21
997.7860516528422
 31
0.0
 11
4681.593290139277
 21
997.7860517032909
 31
0.0
 11
4681.570125341175
 21
997.7860517590436
 31
0.0
 11
4681.54841400338
 21
997.7860518189292
 31
0.0
 11
4681.532969258855
 21
997.786051868836
 31
0.0
 11
4681.521753742262
 21
997.7860519104486
 31
0.0
 11
4681.514082821141
 21
997.7860519416215
 31
0.0
 11
4681.50927186303
 21
997.78605196021
 31
0.0
 11
4681.506636235468
 21
997.7860519640676
 31
0.0
 11
4681.505491305999
 21
997.7860519510505
 31
0.0
  0
SPLINE
  5
1FC
330
1F
100
AcDbEntity
  8
0
  6
Continuous
 62
     2
100
AcDbSpline
210
0.0
220
0.0
230
1.0
 70
     8
 71
     3
 72
    15
 73
    11
 74
     9
 42
0.0000000001
 43
0.0000000001
 44
0.00000001
 40
0.0
 40
0.0
 40
0.0
 40
0.0
 40
0.7029350000297655
 40
1.407986454724594
 40
2.108605237084096
 40
2.809757339187469
 40
3.506145203970629
 40
4.205330868241674
 40
4.902334303422659
 40
5.597402989667029
 40
5.597402989667029
 40
5.597402989667029
 40
5.597402989667029
 10
4540.958502173507
 20
997.8479774568435
 30
0.0
 10
4540.969935800908
 20
997.6132906667706
 30
0.0
 10
4540.992837481019
 20
997.1432104722837
 30
0.0
 10
4541.18990599909
 20
996.462116936272
 30
0.0
 10
4541.502504588704
 20
995.8294532652312
 30
0.0
 10
4541.930773795619
 20
995.2706458794014
 30
0.0
 10
4542.459582194164
 20
994.8062639952169
 30
0.0
 10
4543.069532312648
 20
994.4598747363591
 30
0.0
 10
4543.738206916714
 20
994.2376630065868
 30
0.0
 10
4544.202948723319
 20
994.2089245786963
 30
0.0
 10
4544.434996669678
 20
994.1945753355711
 30
0.0
 11
4540.958502173507
 21
997.8479774568435
 31
0.0
 11
4541.01989332383
 21
997.1477284004865
 31
0.0
 11
4541.209740362767
 21
996.4687176085441
 31
0.0
 11
4541.521945059239
 21
995.8415055983786
 31
0.0
 11
4541.948662961632
 21
995.2851548977762
 31
0.0
 11
4542.472524816731
 21
994.8263250654973
 31
0.0
 11
4543.08006501387
 21
994.4802679864147
 31
0.0
 11
4543.743746729433
 21
994.2673352057508
 31
0.0
 11
4544.434996669678
 21
994.1945753355711
 31
0.0
  0
SPLINE
  5
1FD
330
1F
100
AcDbEntity
  8
0
  6
Continuous
 62
     2
100
AcDbSpline
210
0.0
220
0.0
230
1.0
 70
     8
 71
     3
 72
     9
 73
     5
 74
     3
 42
0.0000000001
 43
0.0000000001
 44
0.00000001
 40
0.0
 40
0.0
 40
0.0
 40
0.0
 40
6.374043025549684
 40
12.78718177881551
 40
12.78718177881551
 40
12.78718177881551
 40
12.78718177881551
 10
4540.958502173507
 20
997.8479774568435
 30
0.0
 10
4540.968303447269
 20
999.9726381762109
 30
0.0
 10
4540.987966111731
 20
1004.23499139974
 30
0.0
 10
4540.990703798002
 20
1008.497389131007
 30
0.0
 10
4540.992076826259
 20
1010.635103957077
 30
0.0
 11
4540.958502173507
 21
997.8479774568435
 31
0.0
 11
4540.983700584041
 21
1004.221970673946
 31
0.0
 11
4540.992076826259
 21
1010.635103957077
 31
0.0
  0
SPLINE
  5
1FE
330
1F
100
AcDbEntity
  8
0
  6
Continuous
 62
     2
100
AcDbSpline
210
0.0
220
0.0
230
1.0
 70
     8
 71
     3
 72
    24
 73
    20
 74
    18
 42
0.0000000001
 43
0.0000000001
 44
0.00000001
 40
0.0
 40
0.0
 40
0.0
 40
0.0
 40
0.0271949471950949
 40
0.0604584954175344
 40
0.0988549068639167
 40
0.1414484403871779
 40
0.1873033533606112
 40
0.2316067472310691
 40
0.2696900925176551
 40
0.3016243350682588
 40
0.3274804206529429
 40
0.3473292949701042
 40
0.3719659876988599
 40
0.4001958477933111
 40
0.4293533294533204
 40
0.4567728877356024
 40
0.4789917414234844
 40
0.4933651393261671
 40
0.4996956446634491
 40
0.4996956446634491
 40
0.4996956446634491
 40
0.4996956446634491
 10
4536.931210963453
 20
997.7860511940362
 30
0.0
 10
4536.940275938593
 20
997.7860395460574
 30
0.0
 10
4536.960428754262
 20
997.7860136508326
 30
0.0
 10
4536.993380385787
 20
997.7859937970591
 30
0.0
 10
4537.031464880071
 20
997.7859783145839
 30
0.0
 10
4537.073746498723
 20
997.7859691337388
 30
0.0
 10
4537.117997111843
 20
997.7859639102587
 30
0.0
 10
4537.160744329186
 20
997.7859613857064
 30
0.0
 10
4537.198851323109
 20
997.7859614461099
 30
0.0
 10
4537.230809214208
 20
997.7859634221913
 30
0.0
 10
4537.256688948186
 20
997.7859665319497
 30
0.0
 10
4537.28013616538
 20
997.7859706438934
 30
0.0
 10
4537.304374640433
 20
997.7859763409185
 30
0.0
 10
4537.331715983889
 20
997.785985390879
 30
0.0
 10
4537.35998494755
 20
997.7859979939648
 30
0.0
 10
4537.386250240294
 20
997.7860169987139
 30
0.0
 10
4537.40758749873
 20
997.7860348320966
 30
0.0
 10
4537.421895074871
 20
997.7860605411549
 30
0.0
 10
4537.428796374729
 20
997.786053962552
 30
0.0
 10
4537.430906542802
 20
997.7860519510532
 30
0.0
 11
4536.931210963453
 21
997.7860511940362
 31
0.0
 11
4536.958405891631
 21
997.7860190327318
 31
0.0
 11
4536.991669431765
 21
997.7859958366203
 31
0.0
 11
4537.030065839959
 21
997.7859800325338
 31
0.0
 11
4537.072659372312
 21
997.7859700473041
 31
0.0
 11
4537.118514284926
 21
997.785964307763
 31
0.0
 11
4537.162817678723
 21
997.7859617448461
 31
0.0
 11
4537.200901024009
 21
997.785961865356
 31
0.0
 11
4537.232835266495
 21
997.7859638905647
 31
0.0
 11
4537.258691351888
 21
997.785967041744
 31
0.0
 11
4537.278540225897
 21
997.7859705401661
 31
0.0
 11
4537.303176917922
 21
997.785976426642
 31
0.0
 11
4537.331406776454
 21
997.7859858200642
 31
0.0
 11
4537.360564254837
 21
997.7859996434016
 31
0.0
 11
4537.387983806414
 21
997.7860188196217
 31
0.0
 11
4537.410202648689
 21
997.7860413399582
 31
0.0
 11
4537.424576038899
 21
997.7860562111337
 31
0.0
 11
4537.430906542802
 21
997.7860519510532
 31
0.0
  0
SPLINE
  5
1FF
330
1F
100
AcDbEntity
  8
0
  6
Continuous
 62
     2
100
AcDbSpline
210
0.0
220
0.0
230
1.0
 70
     8
 71
     3
 72
     9
 73
     5
 74
     3
 42
0.0000000001
 43
0.0000000001
 44
0.00000001
 40
0.0
 40
0.0
 40
0.0
 40
0.0
 40
6.140904253668679
 40
12.31947902386391
 40
12.31947902386391
 40
12.31947902386391
 40
12.31947902386391
 10
4537.960268694225
 20
998.3154141024764
 30
0.0
 10
4537.970080919806
 20
1000.362361076066
 30
0.0
 10
4537.989765562691
 20
1004.468811732585
 30
0.0
 10
4537.992521934656
 20
1008.575308679387
 30
0.0
 10
4537.993904334858
 20
1010.634835578231
 30
0.0
 11
4537.960268694225
 21
998.3154141024764
 31
0.0
 11
4537.98549914531
 21
1004.456266525151
 31
0.0
 11
4537.993904334858
 21
1010.634835578231
 31
0.0
  0
SPLINE
  5
200
330
1F
100
AcDbEntity
  8
0
  6
Continuous
 62
     2
100
AcDbSpline
210
0.0
220
0.0
230
1.0
 70
     8
 71
     3
 72
    23
 73
    19
 74
    17
 42
0.0000000001
 43
0.0000000001
 44
0.00000001
 40
0.0
 40
0.0
 40
0.0
 40
0.0
 40
0.6292925021524504
 40
1.25924233285997
 40
1.890721509226204
 40
2.522766957626896
 40
3.156608394970944
 40
3.790363752283429
 40
4.423164914228028
 40
5.057050584578923
 40
5.697227897154931
 40
6.338710504644556
 40
6.980355062543577
 40
7.622753138964003
 40
8.268856177038446
 40
8.915550568759397
 40
9.560171203348336
 40
10.20384973792054
 40
10.20384973792054
 40
10.20384973792054
 40
10.20384973792054
 10
4537.960268694225
 20
998.3154141024764
 30
0.0
 10
4537.965621258491
 20
998.1055570583717
 30
0.0
 10
4537.976331978053
 20
997.6856237636295
 30
0.0
 10
4538.069017368168
 20
997.0607433892809
 30
0.0
 10
4538.217364202304
 20
996.4464807375576
 30
0.0
 10
4538.426012249402
 20
995.8482862782417
 30
0.0
 10
4538.692041967853
 20
995.2725934906086
 30
0.0
 10
4539.012680472848
 20
994.7251080112876
 30
0.0
 10
4539.385071515318
 20
994.21139460162
 30
0.0
 10
4539.807432488811
 20
993.7350232581775
 30
0.0
 10
4540.276720760955
 20
993.3005280293839
 30
0.0
 10
4540.788369831052
 20
992.9125030938162
 30
0.0
 10
4541.336776657849
 20
992.5769466415342
 30
0.0
 10
4541.917251249071
 20
992.2970831024197
 30
0.0
 10
4542.524293598153
 20
992.0755040192581
 30
0.0
 10
4543.15100366285
 20
991.9161967283721
 30
0.0
 10
4543.789830334575
 20
991.8160507882806
 30
0.0
 10
4544.219431328479
 20
991.8034403894573
 30
0.0
 10
4544.434074747357
 20
991.7971398008756
 30
0.0
 11
4537.960268694225
 21
998.3154141024764
 31
0.0
 11
4537.989067779328
 21
997.6867809296622
 31
0.0
 11
4538.078167897458
 21
997.0631640936501
 31
0.0
 11
4538.227299315299
 21
996.4495471362599
 31
0.0
 11
4538.435305586319
 21
995.8527097714273
 31
0.0
 11
4538.701143849654
 21
995.2773099231116
 31
0.0
 11
4539.021475884292
 21
994.7304706043838
 31
0.0
 11
4539.392934656172
 21
994.2181663087233
 31
0.0
 11
4539.813448499075
 21
993.7438466369798
 31
0.0
 11
4540.2831277245
 21
993.3088427097082
 31
0.0
 11
4540.794350444084
 21
992.9213491398355
 31
0.0
 11
4541.341670513596
 21
992.5864633679812
 31
0.0
 11
4541.920282641882
 21
992.3073875833121
 31
0.0
 11
4542.527269861744
 21
992.0859927985181
 31
0.0
 11
4543.153833739383
 21
991.9258948799784
 31
0.0
 11
4543.791212089617
 21
991.8295382445515
 31
0.0
 11
4544.434074747357
 21
991.7971398008756
 31
0.0
  0
SPLINE
  5
201
330
1F
100
AcDbEntity
  8
0
  6
Continuous
 62
     2
100
AcDbSpline
210
0.0
220
0.0
230
1.0
 70
     8
 71
     3
 72
    19
 73
    15
 74
    13
 42
0.0000000001
 43
0.0000000001
 44
0.00000001
 40
0.0
 40
0.0
 40
0.0
 40
0.0
 40
0.5358637852260725
 40
1.083870240009313
 40
1.441042302093868
 40
1.779949898769819
 40
2.091075153396658
 40
2.365935277611552
 40
2.597977419962524
 40
2.784125773520234
 40
2.923887982531713
 40
3.020795045758569
 40
3.056001313892145
 40
3.085193436082557
 40
3.085193436082557
 40
3.085193436082557
 40
3.085193436082557
 10
4540.958502173507
 20
997.8479774568435
 30
0.0
 10
4540.779884360822
 20
997.8502507968648
 30
0.0
 10
4540.418601257086
 20
997.854848990776
 30
0.0
 10
4539.93872537805
 20
997.8788449667854
 30
0.0
 10
4539.525244513236
 20
997.9109585348459
 30
0.0
 10
4539.191282887868
 20
997.945866729175
 30
0.0
 10
4538.885712547301
 20
997.9872406290658
 30
0.0
 10
4538.617084199197
 20
998.0345726058504
 30
0.0
 10
4538.391732508487
 20
998.085957697475
 30
0.0
 10
4538.213442725124
 20
998.13966178655
 30
0.0
 10
4538.083179047177
 20
998.1944440210682
 30
0.0
 10
4538.006551645429
 20
998.2444202192307
 30
0.0
 10
4537.970597793689
 20
998.2857179428443
 30
0.0
 10
4537.963490477347
 20
998.3061514764123
 30
0.0
 10
4537.960268694225
 20
998.3154141024764
 30
0.0
 11
4540.958502173507
 21
997.8479774568435
 31
0.0
 11
4540.422733723863
 21
997.8580851114676
 31
0.0
 11
4539.875391676932
 21
997.8850621043658
 31
0.0
 11
4539.519317953543
 21
997.9130511280257
 31
0.0
 11
4539.182280961022
 21
997.9486098788104
 31
0.0
 11
4538.874061336076
 21
997.991031416556
 31
0.0
 11
4538.603504255207
 21
998.0394767865605
 31
0.0
 11
4538.377532838406
 21
998.0922069924777
 31
0.0
 11
4538.199838598105
 21
998.1476683889263
 31
0.0
 11
4538.072141532618
 21
998.2044745024506
 31
0.0
 11
4537.993352079281
 21
998.2608943654966
 31
0.0
 11
4537.97142312188
 21
998.2884370985348
 31
0.0
 11
4537.960268694225
 21
998.3154141024764
 31
0.0
  0
SPLINE
  5
202
330
1F
100
AcDbEntity
  8
0
  6
Continuous
 62
     2
100
AcDbSpline
210
0.0
220
0.0
230
1.0
 70
     8
 71
     3
 72
     9
 73
     5
 74
     3
 42
0.0000000001
 43
0.0000000001
 44
0.00000001
 40
0.0
 40
0.0
 40
0.0
 40
0.0
 40
6.178574665234605
 40
12.31947926692894
 40
12.31947926692894
 40
12.31947926692894
 40
12.31947926692894
 10
4537.993904319298
 20
1017.435372342729
 30
0.0
 10
4537.992521945497
 20
1019.494899206603
 30
0.0
 10
4537.98976562607
 20
1023.60139623446
 30
0.0
 10
4537.970081038981
 20
1027.707846972267
 30
0.0
 10
4537.960268840851
 20
1029.754794061997
 30
0.0
 11
4537.993904319298
 21
1017.435372342729
 31
0.0
 11
4537.985499210085
 21
1023.613941290958
 31
0.0
 11
4537.960268840851
 21
1029.754794061997
 31
0.0
  0
SPLINE
  5
203
330
1F
100
AcDbEntity
  8
0
  6
Continuous
 62
     2
100
AcDbSpline
210
0.0
220
0.0
230
1.0
 70
     8
 71
     3
 72
     9
 73
     5
 74
     3
 42
0.0000000001
 43
0.0000000001
 44
0.00000001
 40
0.0
 40
0.0
 40
0.0
 40
0.0
 40
6.412700470091866
 40
12.78631327210837
 40
12.78631327210837
 40
12.78631327210837
 40
12.78631327210837
 10
4540.992076825212
 20
1017.435103956969
 30
0.0
 10
4540.990699420331
 20
1019.572672685657
 30
0.0
 10
4540.987953006337
 20
1023.834780908727
 30
0.0
 10
4540.968282702948
 20
1028.096844591411
 30
0.0
 10
4540.958477617241
 20
1030.22136188368
 30
0.0
 11
4540.992076825212
 21
1017.435103956969
 31
0.0
 11
4540.983687730577
 21
1023.847798939752
 31
0.0
 11
4540.958477617241
 21
1030.22136188368
 31
0.0
  0
SPLINE
  5
204
330
1F
100
AcDbEntity
  8
0
  6
Continuous
 62
     2
100
AcDbSpline
210
0.0
220
0.0
230
1.0
 70
     8
 71
     3
 72
    19
 73
    15
 74
    13
 42
0.0000000001
 43
0.0000000001
 44
0.00000001
 40
0.0
 40
0.0
 40
0.0
 40
0.0
 40
0.0292390934666922
 40
0.0645257394787323
 40
0.1612397150869153
 40
0.300698540276056
 40
0.4867448345966723
 40
0.7187099641519746
 40
0.9935151142748708
 40
1.304607034827466
 40
1.643501759171374
 40
2.000672120687443
 40
2.548689726409188
 40
3.084560397180415
 40
3.084560397180415
 40
3.084560397180415
 40
3.084560397180415
 10
4537.960268840851
 20
1029.754794061997
 30
0.0
 10
4537.963505162927
 20
1029.764069133206
 30
0.0
 10
4537.970647178984
 20
1029.784537648385
 30
0.0
 10
4538.006709844382
 20
1029.825722640819
 30
0.0
 10
4538.083333776291
 20
1029.875425972173
 30
0.0
 10
4538.213526288617
 20
1029.929864468133
 30
0.0
 10
4538.391752642084
 20
1029.983209884315
 30
0.0
 10
4538.617100133435
 20
1030.034256749646
 30
0.0
 10
4538.885723523613
 20
1030.081288811265
 30
0.0
 10
4539.191288099109
 20
1030.122443820329
 30
0.0
 10
4539.525243794322
 20
1030.157241748083
 30
0.0
 10
4539.938719828894
 20
1030.189392099491
 30
0.0
 10
4540.418581230295
 20
1030.213670124346
 30
0.0
 10
4540.779861756217
 20
1030.21881719131
 30
0.0
 10
4540.958477617241
 20
1030.22136188368
 30
0.0
 11
4537.960268840851
 21
1029.754794061997
 31
0.0
 11
4537.971474639201
 21
1029.781800629163
 31
0.0
 11
4537.993523929335
 21
1029.809350151688
 31
0.0
 11
4538.072301481223
 21
1029.865454433134
 31
0.0
 11
4538.199839217125
 21
1029.921871539086
 31
0.0
 11
4538.377532299948
 21
1029.976993149616
 31
0.0
 11
4538.603503823866
 21
1030.029382954996
 31
0.0
 11
4538.8740590343
 21
1030.077525956989
 31
0.0
 11
4539.182275572794
 21
1030.119724872051
 31
0.0
 11
4539.51931122204
 21
1030.155173501439
 31
0.0
 11
4539.875380891612
 21
1030.183192380008
 31
0.0
 11
4540.422716585512
 21
1030.210522479969
 31
0.0
 11
4540.958477617241
 21
1030.22136188368
 31
0.0
  0
SPLINE
  5
205
330
1F
100
AcDbEntity
  8
0
  6
Continuous
 62
     2
100
AcDbSpline
210
0.0
220
0.0
230
1.0
 70
     8
 71
     3
 72
    24
 73
    20
 74
    18
 42
0.0000000001
 43
0.0000000001
 44
0.00000001
 40
0.0
 40
0.0
 40
0.0
 40
0.0
 40
0.0271948686845783
 40
0.0604583461129252
 40
0.0988546853925311
 40
0.1414481396327109
 40
0.1873029619418777
 40
0.2123838190963642
 40
0.2421777847750205
 40
0.2754338676047426
 40
0.3109010762115263
 40
0.3473284192277479
 40
0.3719650040409851
 40
0.4001947284025931
 40
0.4293520438719097
 40
0.4567714020038273
 40
0.4789900481138406
 40
0.4933631881916554
 40
0.499693412380992
 40
0.499693412380992
 40
0.499693412380992
 40
0.499693412380992
 10
4536.931212567733
 20
1030.28416110941
 30
0.0
 10
4536.940277523961
 20
1030.284161055749
 30
0.0
 10
4536.960430306
 20
1030.284160936453
 30
0.0
 10
4536.993381867795
 20
1030.284160727379
 30
0.0
 10
4537.031466291443
 20
1030.284160470987
 30
0.0
 10
4537.073747830053
 20
1030.284160165646
 30
0.0
 10
4537.111590874621
 20
1030.284159871101
 30
0.0
 10
4537.145167422998
 20
1030.284159593038
 30
0.0
 10
4537.174544391552
 20
1030.284159337481
 30
0.0
 10
4537.207383477256
 20
1030.284159034488
 30
0.0
 10
4537.242433688738
 20
1030.284158687844
 30
0.0
 10
4537.274610734216
 20
1030.284158342944
 30
0.0
 10
4537.304375284943
 20
1030.2841579961
 30
0.0
 10
4537.331716493158
 20
1030.284157652763
 30
0.0
 10
4537.359985292474
 20
1030.284157247064
 30
0.0
 10
4537.386250399042
 20
1030.284156841986
 30
0.0
 10
4537.407587447142
 20
1030.284156346265
 30
0.0
 10
4537.421894783934
 20
1030.284156087553
 30
0.0
 10
4537.428795905343
 20
1030.284155621262
 30
0.0
 10
4537.430905980068
 20
1030.28415547869
 30
0.0
 11
4536.931212567733
 21
1030.28416110941
 31
0.0
 11
4536.958407436417
 21
1030.284160946693
 31
0.0
 11
4536.991670913845
 21
1030.284160736241
 31
0.0
 11
4537.030067253124
 21
1030.284160477436
 31
0.0
 11
4537.072660707363
 21
1030.284160169656
 31
0.0
 11
4537.118515529671
 21
1030.284159812282
 31
0.0
 11
4537.143596386824
 21
1030.284159604452
 31
0.0
 11
4537.173390352502
 21
1030.284159345045
 31
0.0
 11
4537.20664643533
 21
1030.28415903773
 31
0.0
 11
4537.242113643935
 21
1030.284158686175
 31
0.0
 11
4537.278540986949
 21
1030.28415829405
 31
0.0
 11
4537.303177571761
 21
1030.284158006595
 31
0.0
 11
4537.33140729612
 21
1030.284157648342
 31
0.0
 11
4537.360564611587
 21
1030.284157233384
 31
0.0
 11
4537.387983969715
 21
1030.284156775818
 31
0.0
 11
4537.41020261582
 21
1030.284156308669
 31
0.0
 11
4537.424575755891
 21
1030.28415587448
 31
0.0
 11
4537.430905980068
 21
1030.28415547869
 31
0.0
  0
SPLINE
  5
206
330
1F
100
AcDbEntity
  8
0
  6
Continuous
 62
     2
100
AcDbSpline
210
0.0
220
0.0
230
1.0
 70
     8
 71
     3
 72
    21
 73
    17
 74
    15
 42
0.0000000001
 43
0.0000000001
 44
0.00000001
 40
0.0
 40
0.0
 40
0.0
 40
0.0
 40
0.0599886069389634
 40
0.1118175173142964
 40
0.1545635086513255
 40
0.1873033557848955
 40
0.2449756563025802
 40
0.2985380218969672
 40
0.3473293090571644
 40
0.3811083502419049
 40
0.4196956626270007
 40
0.4567729167473466
 40
0.4704130736565329
 40
0.4836765358885993
 40
0.4942188765785339
 40
0.4996956713592089
 40
0.4996956713592089
 40
0.4996956713592089
 40
0.4996956713592089
 10
4543.926945983931
 20
1037.279891956892
 30
0.0
 10
4543.926929832081
 20
1037.259895760973
 30
0.0
 10
4543.926899725368
 20
1037.222623267119
 30
0.0
 10
4543.926875110504
 20
1037.171102102678
 30
0.0
 10
4543.926863041347
 20
1037.128663854596
 30
0.0
 10
4543.926857896814
 20
1037.084277808474
 30
0.0
 10
4543.926855611002
 20
1037.036286304083
 30
0.0
 10
4543.926857463434
 20
1036.982944319611
 30
0.0
 10
4543.926863666251
 20
1036.937566755299
 30
0.0
 10
4543.926873682273
 20
1036.897180876191
 30
0.0
 10
4543.926887816021
 20
1036.860699676317
 30
0.0
 10
4543.926905656361
 20
1036.830931439799
 30
0.0
 10
4543.926926506301
 20
1036.809604491819
 30
0.0
 10
4543.926937785507
 20
1036.797122511111
 30
0.0
 10
4543.92694863044
 20
1036.787361649033
 30
0.0
 10
4543.926947354618
 20
1036.782021936962
 30
0.0
 10
4543.926946918426
 20
1036.780196338617
 30
0.0
 11
4543.926945983931
 21
1037.279891956892
 31
0.0
 11
4543.926901068347
 21
1037.219903366768
 31
0.0
 11
4543.926875494781
 21
1037.168074462702
 31
0.0
 11
4543.926863452276
 21
1037.125328473061
 31
0.0
 11
4543.926859129888
 21
1037.092588626213
 31
0.0
 11
4543.926856366619
 21
1037.034916325762
 31
0.0
 11
4543.92685847135
 21
1036.981353960208
 31
0.0
 11
4543.926865420049
 21
1036.932562673543
 31
0.0
 11
4543.926874017524
 21
1036.898783633452
 31
0.0
 11
4543.926889400889
 21
1036.860196324134
 31
0.0
 11
4543.92691375661
 21
1036.823119078013
 31
0.0
 11
4543.926926458486
 21
1036.809478927018
 31
0.0
 11
4543.926939116082
 21
1036.796215470825
 31
0.0
 11
4543.926947384396
 21
1036.785673133378
 31
0.0
 11
4543.926946918426
 21
1036.780196338617
 31
0.0
  0
SPLINE
  5
207
330
1F
100
AcDbEntity
  8
0
  6
Continuous
 62
     2
100
AcDbSpline
210
0.0
220
0.0
230
1.0
 70
     8
 71
     3
 72
    23
 73
    19
 74
    17
 42
0.0000000001
 43
0.0000000001
 44
0.00000001
 40
0.0
 40
0.0
 40
0.0
 40
0.0
 40
0.6292925423865192
 40
1.259242404944379
 40
1.890721592269021
 40
2.522767089960955
 40
3.156608848545029
 40
3.790364615529924
 40
4.423166209591403
 40
5.057052188254426
 40
5.697229229320342
 40
6.338711446164092
 40
6.980355633183001
 40
7.622753414741171
 40
8.268856378387252
 40
8.915550718815666
 40
9.56017133514769
 40
10.20385015045587
 40
10.20385015045587
 40
10.20385015045587
 40
10.20385015045587
 10
4680.976129154208
 20
1029.754793811205
 30
0.0
 10
4680.970776588219
 20
1029.964650868688
 30
0.0
 10
4680.96006586528
 20
1030.38458418739
 30
0.0
 10
4680.867380477417
 20
1031.00946458913
 30
0.0
 10
4680.719033671461
 20
1031.623727279177
 30
0.0
 10
4680.510385578563
 20
1032.221921859945
 30
0.0
 10
4680.244355668236
 20
1032.797614848431
 30
0.0
 10
4679.923716864937
 20
1033.345100602822
 30
0.0
 10
4679.551325520872
 20
1033.858814266874
 30
0.0
 10
4679.128964382446
 20
1034.335185674475
 30
0.0
 10
4678.659676113628
 20
1034.769680734686
 30
0.0
 10
4678.148027228808
 20
1035.157705343601
 30
0.0
 10
4677.599620643508
 20
1035.493261511541
 30
0.0
 10
4677.019146257303
 20
1035.773124899014
 30
0.0
 10
4676.412104064326
 20
1035.994703991962
 30
0.0
 10
4675.785394058235
 20
1036.154011334915
 30
0.0
 10
4675.146567299244
 20
1036.254157186872
 30
0.0
 10
4674.716966217159
 20
1036.266767543581
 30
0.0
 10
4674.502322704338
 20
1036.273068112585
 30
0.0
 11
4680.976129154208
 21
1029.754793811205
 31
0.0
 11
4680.947330064778
 21
1030.383427024097
 31
0.0
 11
4680.858229951305
 21
1031.007043892949
 31
0.0
 11
4680.709098555049
 21
1031.620660866862
 31
0.0
 11
4680.501092259769
 21
1032.217498275439
 31
0.0
 11
4680.235253791602
 21
1032.792898382988
 31
0.0
 11
4679.914921456117
 21
1033.33973800027
 31
0.0
 11
4679.54346235205
 21
1033.852042588823
 31
0.0
 11
4679.122948233337
 21
1034.326362428075
 31
0.0
 11
4678.653269122214
 21
1034.76136607919
 31
0.0
 11
4678.142046629844
 21
1035.148859302127
 31
0.0
 11
4677.594726819658
 21
1035.4837447872
 31
0.0
 11
4677.016114940356
 21
1035.762820409355
 31
0.0
 11
4676.409127806378
 21
1035.984215212406
 31
0.0
 11
4675.78256398768
 21
1036.144313154432
 31
0.0
 11
4675.145185645943
 21
1036.240669723929
 31
0.0
 11
4674.502322704338
 21
1036.273068112585
 31
0.0
  0
SPLINE
  5
208
330
1F
100
AcDbEntity
  8
0
  6
Continuous
 62
     2
100
AcDbSpline
210
0.0
220
0.0
230
1.0
 70
     8
 71
     3
 72
    31
 73
    27
 74
    25
 42
0.0000000001
 43
0.0000000001
 44
0.00000001
 40
0.0
 40
0.0
 40
0.0
 40
0.0
 40
0.0408534809198863
 40
0.0782171694316232
 40
0.1118175096865841
 40
0.141380945834687
 40
0.1666339220280442
 40
0.1873028824166541
 40
0.2246561304648535
 40
0.2576816908440164
 40
0.2864206226912684
 40
0.3109139851446385
 40
0.3312028373416943
 40
0.3473282384206786
 40
0.3757583532688117
 40
0.3996304952068154
 40
0.4193062520864254
 40
0.4351472117586824
 40
0.447514962075293
 40
0.456771090887033
 40
0.472215466807529
 40
0.4834307698004692
 40
0.4911016192315831
 40
0.4959126344677877
 40
0.4985484348801885
 40
0.499693639865294
 40
0.499693639865294
 40
0.499693639865294
 40
0.499693639865294
 10
4675.009456686798
 20
1037.279889976625
 30
0.0
 10
4675.0094566753
 20
1037.266272149652
 30
0.0
 10
4675.009456653284
 20
1037.240199759841
 30
0.0
 10
4675.009456517149
 20
1037.202927256613
 30
0.0
 10
4675.009456333704
 20
1037.169418101641
 30
0.0
 10
4675.009456119685
 20
1037.139945850777
 30
0.0
 10
4675.009455900648
 20
1037.114784059868
 30
0.0
 10
4675.00945562879
 20
1037.087025664992
 30
0.0
 10
4675.009455314938
 20
1037.056676408722
 30
0.0
 10
4675.009454951155
 20
1037.023637161966
 30
0.0
 10
4675.009454614932
 20
1036.994884543741
 30
0.0
 10
4675.009454312006
 20
1036.97037749491
 30
0.0
 10
4675.009454047927
 20
1036.950074956335
 30
0.0
 10
4675.009453753701
 20
1036.928460166963
 30
0.0
 10
4675.009453424496
 20
1036.905650947677
 30
0.0
 10
4675.009453048174
 20
1036.881658276458
 30
0.0
 10
4675.009452710342
 20
1036.861861990297
 30
0.0
 10
4675.009452414226
 20
1036.845900501344
 30
0.0
 10
4675.009452161627
 20
1036.833412221747
 30
0.0
 10
4675.009451893035
 20
1036.821056136733
 30
0.0
 10
4675.009451592254
 20
1036.809084200827
 30
0.0
 10
4675.009451302392
 20
1036.797640691387
 30
0.0
 10
4675.009451031645
 20
1036.789741635494
 30
0.0
 10
4675.009451024025
 20
1036.784702413821
 30
0.0
 10
4675.009450893084
 20
1036.781838406911
 30
0.0
 10
4675.009451225622
 20
1036.780578071818
 30
0.0
 10
4675.009451326342
 20
1036.780196336835
 30
0.0
 11
4675.009456686798
 21
1037.279889976625
 31
0.0
 11
4675.009456632331
 21
1037.239036495705
 31
0.0
 11
4675.009456500619
 21
1037.201672807194
 31
0.0
 11
4675.00945631569
 21
1037.168072466939
 31
0.0
 11
4675.009456101579
 21
1037.138509030792
 31
0.0
 11
4675.009455882308
 21
1037.1132560546
 31
0.0
 11
4675.009455681912
 21
1037.092587094212
 31
0.0
 11
4675.009455295597
 21
1037.055233846166
 31
0.0
 11
4675.009454931402
 21
1037.022208285789
 31
0.0
 11
4675.009454594933
 21
1036.993469353943
 31
0.0
 11
4675.009454291796
 21
1036.968975991492
 31
0.0
 11
4675.009454027595
 21
1036.948687139296
 31
0.0
 11
4675.009453807936
 21
1036.932561738219
 31
0.0
 11
4675.009453396119
 21
1036.904131623374
 31
0.0
 11
4675.009453020212
 21
1036.880259481439
 31
0.0
 11
4675.009452683127
 21
1036.860583724562
 31
0.0
 11
4675.009452387781
 21
1036.844742764893
 31
0.0
 11
4675.009452137086
 21
1036.832375014578
 31
0.0
 11
4675.009451933959
 21
1036.823118885769
 31
0.0
 11
4675.009451556223
 21
1036.807674509853
 31
0.0
 11
4675.009451252605
 21
1036.796459206864
 31
0.0
 11
4675.009451050456
 21
1036.788788357436
 31
0.0
 11
4675.009450977128
 21
1036.7839773422
 31
0.0
 11
4675.009451059974
 21
1036.781341541789
 31
0.0
 11
4675.009451326342
 21
1036.780196336835
 31
0.0
  0
SPLINE
  5
209
330
1F
100
AcDbEntity
  8
0
  6
Continuous
 62
     2
100
AcDbSpline
210
0.0
220
0.0
230
1.0
 70
     8
 71
     3
 72
    20
 73
    16
 74
    14
 42
0.0000000001
 43
0.0000000001
 44
0.00000001
 40
0.0
 40
0.0
 40
0.0
 40
0.0
 40
0.0954018155312243
 40
0.1873033401929446
 40
0.231606733533167
 40
0.2696900785378097
 40
0.3016243210702234
 40
0.327480406922299
 40
0.3473292818033471
 40
0.3904130100918034
 40
0.4270464365882581
 40
0.4567728745052079
 40
0.4789917279447978
 40
0.4933651259566194
 40
0.499695631433054
 40
0.499695631433054
 40
0.499695631433054
 40
0.499695631433054
 10
4682.005186900215
 20
1030.284206883994
 30
0.0
 10
4681.973386296159
 20
1030.284215419678
 30
0.0
 10
4681.910951851629
 20
1030.284232177872
 30
0.0
 10
4681.833749607648
 20
1030.284243035782
 30
0.0
 10
4681.775653520066
 20
1030.284246538148
 30
0.0
 10
4681.737546526412
 20
1030.284246465258
 30
0.0
 10
4681.705588635326
 20
1030.28424449421
 30
0.0
 10
4681.679708901076
 20
1030.284241376763
 30
0.0
 10
4681.650112671853
 20
1030.284236213656
 30
0.0
 10
4681.616923996255
 20
1030.284227387789
 30
0.0
 10
4681.580442801943
 20
1030.284212533242
 30
0.0
 10
4681.550916568069
 20
1030.284191600169
 30
0.0
 10
4681.528810350192
 20
1030.284173075722
 30
0.0
 10
4681.514502774058
 20
1030.28414737337
 30
0.0
 10
4681.507601474116
 20
1030.284153951607
 30
0.0
 10
4681.505491305996
 20
1030.284155962993
 30
0.0
 11
4682.005186900215
 21
1030.284206883994
 31
0.0
 11
4681.909785087588
 21
1030.284230421495
 31
0.0
 11
4681.817883563872
 21
1030.284243606283
 31
0.0
 11
4681.773580170606
 21
1030.2842461692
 31
0.0
 11
4681.735496825601
 21
1030.28424604869
 31
0.0
 11
4681.703562583133
 21
1030.284244023482
 31
0.0
 11
4681.677706497473
 21
1030.284240872302
 31
0.0
 11
4681.6578576229
 21
1030.28423737388
 31
0.0
 11
4681.614773896188
 21
1030.284225719653
 31
0.0
 11
4681.578140473255
 21
1030.284209561444
 31
0.0
 11
4681.548414042384
 21
1030.284189094424
 31
0.0
 11
4681.526195200358
 21
1030.284166574088
 31
0.0
 11
4681.511821810039
 21
1030.284151702913
 31
0.0
 11
4681.505491305996
 21
1030.284155962993
 31
0.0
  0
SPLINE
  5
20A
330
1F
100
AcDbEntity
  8
0
  6
Continuous
 62
     2
100
AcDbSpline
210
0.0
220
0.0
230
1.0
 70
     8
 71
     3
 72
    19
 73
    15
 74
    13
 42
0.0000000001
 43
0.0000000001
 44
0.00000001
 40
0.0
 40
0.0
 40
0.0
 40
0.0
 40
0.5358637781333789
 40
1.083870222734058
 40
1.441042280835417
 40
1.77994987764133
 40
2.091075140308178
 40
2.365935281901537
 40
2.597977449828818
 40
2.784125841182501
 40
2.923888161222799
 40
3.020795303092876
 40
3.056001552434524
 40
3.085193669324137
 40
3.085193669324137
 40
3.085193669324137
 40
3.085193669324137
 10
4677.977895694698
 20
1030.22223072868
 30
0.0
 10
4678.156513506652
 20
1030.219957499421
 30
0.0
 10
4678.517796607932
 20
1030.215359529558
 30
0.0
 10
4678.99767248856
 20
1030.191363683492
 30
0.0
 10
4679.411153351583
 20
1030.159250148574
 30
0.0
 10
4679.745114976044
 20
1030.124341926987
 30
0.0
 10
4680.050685316051
 20
1030.082967955647
 30
0.0
 10
4680.319313663418
 20
1030.035635872806
 30
0.0
 10
4680.544665353646
 20
1029.984250655844
 30
0.0
 10
4680.72295515756
 20
1029.93054642885
 30
0.0
 10
4680.85321885996
 20
1029.875764057142
 30
0.0
 10
4680.929846261615
 20
1029.825787744597
 30
0.0
 10
4680.965800072878
 20
1029.784489965694
 30
0.0
 10
4680.972907376314
 20
1029.764056436892
 30
0.0
 10
4680.976129154208
 20
1029.754793811205
 30
0.0
 11
4677.977895694698
 21
1030.22223072868
 31
0.0
 11
4678.513664142935
 21
1030.212123375457
 31
0.0
 11
4679.061006187537
 21
1030.185146542148
 31
0.0
 11
4679.417079909113
 21
1030.157157546247
 31
0.0
 11
4679.75411689889
 21
1030.121598768224
 31
0.0
 11
4680.062336521913
 21
1030.079177157536
 31
0.0
 11
4680.332893601217
 21
1030.030731680191
 31
0.0
 11
4680.558865014784
 21
1029.978001347868
 31
0.0
 11
4680.736559253544
 21
1029.922539819627
 31
0.0
 11
4680.864256372424
 21
1029.865733552959
 31
0.0
 11
4680.943045828793
 21
1029.809313559069
 31
0.0
 11
4680.964974744436
 21
1029.781770816805
 31
0.0
 11
4680.976129154208
 21
1029.754793811205
 31
0.0
  0
SPLINE
  5
20B
330
1F
100
AcDbEntity
  8
0
  6
Continuous
 62
     2
100
AcDbSpline
210
0.0
220
0.0
230
1.0
 70
     8
 71
     3
 72
    15
 73
    11
 74
     9
 42
0.0000000001
 43
0.0000000001
 44
0.00000001
 40
0.0
 40
0.0
 40
0.0
 40
0.0
 40
0.7029349598312817
 40
1.407986382618085
 40
2.108605500645158
 40
2.809757930809539
 40
3.506145207020728
 40
4.205330283370606
 40
4.902334005504435
 40
5.597402977178996
 40
5.597402977178996
 40
5.597402977178996
 40
5.597402977178996
 10
4677.977895694698
 20
1030.22223072868
 30
0.0
 10
4677.966462056631
 20
1030.456917505354
 30
0.0
 10
4677.943560355016
 20
1030.926997675811
 30
0.0
 10
4677.746491733429
 20
1031.608091274741
 30
0.0
 10
4677.433892984563
 20
1032.240755104371
 30
0.0
 10
4677.005623661511
 20
1032.7995624399
 30
0.0
 10
4676.476815411074
 20
1033.263944049693
 30
0.0
 10
4675.866865561393
 20
1033.610333158849
 30
0.0
 10
4675.198190973369
 20
1033.83254494116
 30
0.0
 10
4674.733448973688
 20
1033.861283368781
 30
0.0
 10
4674.501400931048
 20
1033.875632611765
 30
0.0
 11
4677.977895694698
 21
1030.22223072868
 31
0.0
 11
4677.916504506609
 21
1030.922479741373
 31
0.0
 11
4677.726657412129
 21
1031.601490484655
 31
0.0
 11
4677.414452497521
 21
1032.228702761192
 31
0.0
 11
4676.987734295033
 21
1032.785053645069
 31
0.0
 11
4676.463872812821
 21
1033.243883009783
 31
0.0
 11
4675.856333129964
 21
1033.589939803885
 31
0.0
 11
4675.192651155799
 21
1033.802872717819
 31
0.0
 11
4674.501400931048
 21
1033.875632611765
 31
0.0
  0
SPLINE
  5
20C
330
1F
100
AcDbEntity
  8
0
  6
Continuous
 62
     2
100
AcDbSpline
210
0.0
220
0.0
230
1.0
 70
     8
 71
     3
 72
    23
 73
    19
 74
    17
 42
0.0000000001
 43
0.0000000001
 44
0.00000001
 40
0.0
 40
0.0
 40
0.0
 40
0.0
 40
0.6439417646894934
 40
1.288893591263145
 40
1.935990298104479
 40
2.582209359085432
 40
3.223300003129174
 40
3.863281081144994
 40
4.503046675116109
 40
5.142046408092039
 40
5.777385233075614
 40
6.412206756204561
 40
7.047937219814601
 40
7.683288261228216
 40
8.31496073156146
 40
8.945721668000012
 40
9.575070028447435
 40
10.20383253764338
 40
10.20383253764338
 40
10.20383253764338
 40
10.20383253764338
 10
4544.434075399327
 20
1036.27306785403
 30
0.0
 10
4544.219344147366
 20
1036.266731902836
 30
0.0
 10
4543.789544824396
 20
1036.254050062123
 30
0.0
 10
4543.150425721792
 20
1036.153639137189
 30
0.0
 10
4542.52341849826
 20
1035.99439376864
 30
0.0
 10
4541.916552138474
 20
1035.77307555442
 30
0.0
 10
4541.33699818575
 20
1035.493479489246
 30
0.0
 10
4540.790001524823
 20
1035.158639461493
 30
0.0
 10
4540.27937466443
 20
1034.771803419054
 30
0.0
 10
4539.810151277715
 20
1034.337947510268
 30
0.0
 10
4539.386995267732
 20
1033.861252881063
 30
0.0
 10
4539.013316214885
 20
1033.346214756088
 30
0.0
 10
4538.691846092094
 20
1032.797075489126
 30
0.0
 10
4538.425535941316
 20
1032.220372008916
 30
0.0
 10
4538.216825608584
 20
1031.622056233204
 30
0.0
 10
4538.068650656675
 20
1031.008326741237
 30
0.0
 10
4537.97625434817
 20
1030.384029444406
 30
0.0
 10
4537.965595688856
 20
1029.964474066154
 30
0.0
 10
4537.960268840851
 20
1029.754794061997
 30
0.0
 11
4544.434075399327
 21
1036.27306785403
 31
0.0
 11
4543.790955738703
 21
1036.240539429081
 31
0.0
 11
4543.153270419036
 21
1036.143997771328
 31
0.0
 11
4542.526296574786
 21
1035.983879232015
 31
0.0
 11
4541.919164655259
 21
1035.762542594591
 31
0.0
 11
4541.341778201209
 21
1035.483935170855
 31
0.0
 11
4540.795907280437
 21
1035.149868234339
 31
0.0
 11
4540.285887706821
 21
1034.763629901495
 31
0.0
 11
4539.816782002173
 21
1034.329739942393
 31
0.0
 11
4539.395009845436
 21
1033.854593996043
 31
0.0
 11
4539.022183525921
 21
1033.340785761675
 31
0.0
 11
4538.700910855285
 21
1032.792208425774
 31
0.0
 11
4538.434574111315
 21
1032.215375967744
 31
0.0
 11
4538.22672885302
 21
1031.618877469522
 31
0.0
 11
4538.077825585682
 21
1031.005944213846
 31
0.0
 11
4537.988958355984
 21
1030.38290169982
 31
0.0
 11
4537.960268840851
 21
1029.754794061997
 31
0.0
  0
SPLINE
  5
20D
330
1F
100
AcDbEntity
  8
0
  6
Continuous
 62
     2
100
AcDbSpline
210
0.0
220
0.0
230
1.0
 70
     8
 71
     3
 72
    15
 73
    11
 74
     9
 42
0.0000000001
 43
0.0000000001
 44
0.00000001
 40
0.0
 40
0.0
 40
0.0
 40
0.0
 40
0.6945591236519595
 40
1.391080076782662
 40
2.089460443542568
 40
2.785027014009616
 40
3.487203937429322
 40
4.188864325389105
 40
4.894168791989475
 40
5.59734969536552
 40
5.59734969536552
 40
5.59734969536552
 40
5.59734969536552
 10
4544.434075298757
 20
1033.875636774809
 30
0.0
 10
4544.202197150626
 20
1033.86127476427
 30
0.0
 10
4543.737785898762
 20
1033.832510176718
 30
0.0
 10
4543.069745674513
 20
1033.610321269739
 30
0.0
 10
4542.460368446587
 20
1033.264397828333
 30
0.0
 10
4541.931520431013
 20
1032.800380361081
 30
0.0
 10
4541.502811823862
 20
1032.241361437558
 30
0.0
 10
4541.1898464445
 20
1031.607999997127
 30
0.0
 10
4540.992718798107
 20
1030.926383193854
 30
0.0
 10
4540.969879866165
 20
1030.456132655957
 30
0.0
 10
4540.958477617241
 20
1030.22136188368
 30
0.0
 11
4544.434075298757
 21
1033.875636774809
 31
0.0
 11
4543.743341130177
 21
1033.802844710653
 31
0.0
 11
4543.080153658756
 21
1033.589950803037
 31
0.0
 11
4542.473265753742
 21
1033.244375619576
 31
0.0
 11
4541.94983510268
 21
1032.78630007179
 31
0.0
 11
4541.522311223705
 21
1032.229276046554
 31
0.0
 11
4541.209621031256
 21
1031.601142188545
 31
0.0
 11
4541.01978753298
 21
1030.921864900879
 31
0.0
 11
4540.958477617241
 21
1030.22136188368
 31
0.0
  0
SPLINE
  5
20E
330
1F
100
AcDbEntity
  8
0
  6
Continuous
 62
     2
100
AcDbSpline
210
0.0
220
0.0
230
1.0
 70
     8
 71
     3
 72
    19
 73
    15
 74
    13
 42
0.0000000001
 43
0.0000000001
 44
0.00000001
 40
0.0
 40
0.0
 40
0.0
 40
0.0
 40
0.3524685846252931
 40
0.6921077886854724
 40
1.01268753995829
 40
1.258127440674582
 40
1.484487727110274
 40
1.689824399727297
 40
1.895671835548239
 40
2.069247696234254
 40
2.208074021859159
 40
2.305320841962624
 40
2.368662679867853
 40
2.397431079220966
 40
2.397431079220966
 40
2.397431079220966
 40
2.397431079220966
 10
4544.434075298757
 20
1033.875636774809
 30
0.0
 10
4544.43407532627
 20
1033.993126303017
 30
0.0
 10
4544.434075380292
 20
1034.223828899246
 30
0.0
 10
4544.434075417779
 20
1034.561391412565
 30
0.0
 10
4544.434075435458
 20
1034.863277697915
 30
0.0
 10
4544.434075443327
 20
1035.127404344057
 30
0.0
 10
4544.434075446253
 20
1035.353116630646
 30
0.0
 10
4544.434075446711
 20
1035.565631428937
 30
0.0
 10
4544.434075447012
 20
1035.760551418645
 30
0.0
 10
4544.434075444737
 20
1035.93330129269
 30
0.0
 10
4544.434075437504
 20
1036.069850961494
 30
0.0
 10
4544.434075423671
 20
1036.169655956039
 30
0.0
 10
4544.434075408275
 20
1036.23277497516
 30
0.0
 10
4544.434075401457
 20
1036.263478387579
 30
0.0
 10
4544.434075399327
 20
1036.27306785403
 30
0.0
 11
4544.434075298757
 21
1033.875636774809
 31
0.0
 11
4544.434075373927
 21
1034.228105359434
 31
0.0
 11
4544.434075415427
 21
1034.567744563494
 31
0.0
 11
4544.434075435183
 21
1034.888324314767
 31
0.0
 11
4544.4340754428
 21
1035.133764215484
 31
0.0
 11
4544.434075445916
 21
1035.360124501919
 31
0.0
 11
4544.43407544669
 21
1035.565461174536
 31
0.0
 11
4544.434075446481
 21
1035.771308610357
 31
0.0
 11
4544.434075443304
 21
1035.944884471043
 31
0.0
 11
4544.434075434439
 21
1036.083710796668
 31
0.0
 11
4544.434075420038
 21
1036.180957616772
 31
0.0
 11
4544.434075405782
 21
1036.244299454677
 31
0.0
 11
4544.434075399327
 21
1036.27306785403
 31
0.0
  0
SPLINE
  5
20F
330
1F
100
AcDbEntity
  8
0
  6
Continuous
 62
     2
100
AcDbSpline
210
0.0
220
0.0
230
1.0
 70
     8
 71
     3
 72
    18
 73
    14
 74
    12
 42
0.0000000001
 43
0.0000000001
 44
0.00000001
 40
0.0
 40
0.0
 40
0.0
 40
0.0
 40
0.4567189110878283
 40
0.9045527813200027
 40
1.187851363605642
 40
1.451562726560656
 40
1.689827803395981
 40
1.897624958044174
 40
2.071165734863827
 40
2.208078147898033
 40
2.3074834687562
 40
2.369986725386066
 40
2.397437221071527
 40
2.397437221071527
 40
2.397437221071527
 40
2.397437221071527
 10
4674.501400931048
 20
1033.875632611765
 30
0.0
 10
4674.501486410354
 20
1034.027872226018
 30
0.0
 10
4674.501655706047
 20
1034.329389774682
 30
0.0
 10
4674.501726254172
 20
1034.725340231429
 30
0.0
 10
4674.501733823638
 20
1035.056954835249
 30
0.0
 10
4674.501713284807
 20
1035.318713178629
 30
0.0
 10
4674.501686333273
 20
1035.555304365276
 30
0.0
 10
4674.50166415825
 20
1035.761838730254
 30
0.0
 10
4674.501682687243
 20
1035.934588761804
 30
0.0
 10
4674.501703483122
 20
1036.071208481292
 30
0.0
 10
4674.501867797675
 20
1036.170814928033
 30
0.0
 10
4674.501906548249
 20
1036.233935434211
 30
0.0
 10
4674.502225402144
 20
1036.263918431571
 30
0.0
 10
4674.502322704338
 20
1036.273068112585
 30
0.0
 11
4674.501400931048
 21
1033.875632611765
 31
0.0
 11
4674.501627905302
 21
1034.332351466453
 31
0.0
 11
4674.501721821768
 21
1034.780185326838
 31
0.0
 11
4674.50172901882
 21
1035.063483909032
 31
0.0
 11
4674.501710982128
 21
1035.32719527137
 31
0.0
 11
4674.501685454166
 21
1035.565460346838
 31
0.0
 11
4674.501671033096
 21
1035.773257500986
 31
0.0
 11
4674.501685450594
 21
1035.946798277207
 31
0.0
 11
4674.501744978355
 21
1036.0837106773
 31
0.0
 11
4674.501867019227
 21
1036.183115923243
 31
0.0
 11
4674.502058776474
 21
1036.24561888572
 31
0.0
 11
4674.502322704338
 21
1036.273068112585
 31
0.0
  0
SPLINE
  5
210
330
1F
100
AcDbEntity
  8
0
  6
Continuous
 62
     2
100
AcDbSpline
210
0.0
220
0.0
230
1.0
 70
     8
 71
     3
 72
     9
 73
     5
 74
     3
 42
0.0000000001
 43
0.0000000001
 44
0.00000001
 40
0.0
 40
0.0
 40
0.0
 40
0.0
 40
6.412700964384761
 40
12.78631425158298
 40
12.78631425158298
 40
12.78631425158298
 40
12.78631425158298
 10
4677.944321023586
 20
1010.635103957077
 30
0.0
 10
4677.945698420749
 20
1008.49753506362
 30
0.0
 10
4677.948444819351
 20
1004.235426514048
 30
0.0
 10
4677.968115108525
 20
999.973362504803
 30
0.0
 10
4677.977920187142
 20
997.8488450507721
 30
0.0
 11
4677.944321023586
 21
1010.635103957077
 31
0.0
 11
4677.952710095366
 21
1004.222408479971
 31
0.0
 11
4677.977920187142
 21
997.8488450507721
 31
0.0
  0
SPLINE
  5
211
330
1F
100
AcDbEntity
  8
0
  6
Continuous
 62
     2
100
AcDbSpline
210
0.0
220
0.0
230
1.0
 70
     8
 71
     3
 72
     9
 73
     5
 74
     3
 42
0.0000000001
 43
0.0000000001
 44
0.00000001
 40
0.0
 40
0.0
 40
0.0
 40
0.0
 40
6.178574617058842
 40
12.31947887156211
 40
12.31947887156211
 40
12.31947887156211
 40
12.31947887156211
 10
4680.9424935295
 20
1010.634835571231
 30
0.0
 10
4680.943875903313
 20
1008.575308723415
 30
0.0
 10
4680.946632222694
 20
1004.468811827346
 30
0.0
 10
4680.966316811142
 20
1000.362361221335
 30
0.0
 10
4680.97612900971
 20
998.3154142473384
 30
0.0
 11
4680.9424935295
 21
1010.634835571231
 31
0.0
 11
4680.950898639308
 21
1004.456266671179
 31
0.0
 11
4680.97612900971
 21
998.3154142473384
 31
0.0
  0
SPLINE
  5
212
330
1F
100
AcDbEntity
  8
0
  6
Continuous
 62
     2
100
AcDbSpline
210
0.0
220
0.0
230
1.0
 70
     8
 71
     3
 72
    23
 73
    19
 74
    17
 42
0.0000000001
 43
0.0000000001
 44
0.00000001
 40
0.0
 40
0.0
 40
0.0
 40
0.0
 40
0.6439395959243497
 40
1.288889177605926
 40
1.935983441738292
 40
2.5822004732508
 40
3.223291463040035
 40
3.863273376096569
 40
4.503039735386714
 40
5.142039949704457
 40
5.77737820911006
 40
6.412198878091622
 40
7.047928357278645
 40
7.683278886385977
 40
8.314953399447084
 40
8.945716903995008
 40
9.575067717567627
 40
10.2038328519789
 40
10.2038328519789
 40
10.2038328519789
 40
10.2038328519789
 10
4674.502322454159
 20
991.7971400516416
 30
0.0
 10
4674.717052982086
 20
991.8034759992873
 30
0.0
 10
4675.146850831603
 20
991.8161578321835
 30
0.0
 10
4675.785967677237
 20
991.9165682546173
 30
0.0
 10
4676.412972891004
 20
992.0758123757458
 30
0.0
 10
4677.019838260953
 20
992.2971292677232
 30
0.0
 10
4677.599392393198
 20
992.5767243050288
 30
0.0
 10
4678.146390124162
 20
992.9115638444937
 30
0.0
 10
4678.657017910117
 20
993.2983998340942
 30
0.0
 10
4679.126241764889
 20
993.7322555740038
 30
0.0
 10
4679.549397928647
 20
994.2089496416265
 30
0.0
 10
4679.923077103702
 20
994.723986667685
 30
0.0
 10
4680.244547880008
 20
995.2731246337532
 30
0.0
 10
4680.510859027983
 20
995.8498278743057
 30
0.0
 10
4680.719570113195
 20
996.4481448558574
 30
0.0
 10
4680.867745877079
 20
997.0618765629417
 30
0.0
 10
4680.960143232694
 20
997.6861762924842
 30
0.0
 10
4680.970802071342
 20
998.1057333665708
 30
0.0
 10
4680.97612900971
 20
998.3154142473384
 30
0.0
 11
4674.502322454159
 21
991.7971400516416
 31
0.0
 11
4675.145439947733
 21
991.8296683878739
 31
0.0
 11
4675.783123078429
 21
991.9262095072893
 31
0.0
 11
4676.410094717563
 21
992.0863268092719
 31
0.0
 11
4677.017225042883
 21
992.3076618943655
 31
0.0
 11
4677.594612243844
 21
992.5862685657789
 31
0.0
 11
4678.14048435638
 21
992.9203351546425
 31
0.0
 11
4678.650504922291
 21
993.3065734448551
 31
0.0
 11
4679.119611296122
 21
993.7404633893448
 31
0.0
 11
4679.541383459145
 21
994.2156085738552
 31
0.0
 11
4679.914209904699
 21
994.7294156614498
 31
0.0
 11
4680.235483033606
 21
995.2779915881448
 31
0.0
 11
4680.501820425586
 21
995.8548231826943
 31
0.0
 11
4680.709666775927
 21
996.4513234635834
 31
0.0
 11
4680.858570987995
 21
997.0642591325552
 31
0.0
 11
4680.947439090733
 21
997.6873040000089
 31
0.0
 11
4680.97612900971
 21
998.3154142473384
 31
0.0
  0
SPLINE
  5
213
330
1F
100
AcDbEntity
  8
0
  6
Continuous
 62
     2
100
AcDbSpline
210
0.0
220
0.0
230
1.0
 70
     8
 71
     3
 72
    15
 73
    11
 74
     9
 42
0.0000000001
 43
0.0000000001
 44
0.00000001
 40
0.0
 40
0.0
 40
0.0
 40
0.0
 40
0.6945434095962475
 40
1.391048437412457
 40
2.08943215033413
 40
2.785002068819768
 40
3.487177235724979
 40
4.18883586328787
 40
4.894142366980024
 40
5.597325282387041
 40
5.597325282387041
 40
5.597325282387041
 40
5.597325282387041
 10
4674.502346089585
 20
994.1945711749138
 30
0.0
 10
4674.734218874025
 20
994.2089341626672
 30
0.0
 10
4675.198619327641
 20
994.2377007039581
 30
0.0
 10
4675.866650257054
 20
994.4598861655202
 30
0.0
 10
4676.476025519219
 20
994.8058070109852
 30
0.0
 10
4677.004875233939
 20
995.269825108117
 30
0.0
 10
4677.433584120061
 20
995.8288437264018
 30
0.0
 10
4677.746549902917
 20
996.4622043780298
 30
0.0
 10
4677.943678604548
 20
997.1438217177263
 30
0.0
 10
4677.966517804546
 20
997.6140736069926
 30
0.0
 10
4677.977920187142
 20
997.8488450507721
 30
0.0
 11
4674.502346089585
 21
994.1945711749138
 31
0.0
 11
4675.193064294745
 21
994.2673647795461
 31
0.0
 11
4675.85623663391
 21
994.4802537232207
 31
0.0
 11
4676.463128101233
 21
994.8258294129971
 31
0.0
 11
4676.98656168422
 21
995.2839066943636
 31
0.0
 11
4677.414084821374
 21
995.8409290747187
 31
0.0
 11
4677.726774888046
 21
996.4690610288797
 31
0.0
 11
4677.916609703662
 21
997.1483400635409
 31
0.0
 11
4677.977920187142
 21
997.8488450507721
 31
0.0
  0
SPLINE
  5
214
330
1F
100
AcDbEntity
  8
0
  6
Continuous
 62
     2
100
AcDbSpline
210
0.0
220
0.0
230
1.0
 70
     8
 71
     3
 72
    19
 73
    15
 74
    13
 42
0.0000000001
 43
0.0000000001
 44
0.00000001
 40
0.0
 40
0.0
 40
0.0
 40
0.0
 40
0.5358706758660222
 40
1.083888293887884
 40
1.441058675180641
 40
1.779953429792532
 40
2.091045393764931
 40
2.365850595798136
 40
2.597815783407038
 40
2.783862125544096
 40
2.92332118893043
 40
3.020035186030662
 40
3.055321621603833
 40
3.084560793117278
 40
3.084560793117278
 40
3.084560793117278
 40
3.084560793117278
 10
4677.977920187142
 20
997.8488450507721
 30
0.0
 10
4678.156536051685
 20
997.8513896479096
 30
0.0
 10
4678.517816587084
 20
997.8565365222854
 30
0.0
 10
4678.997678000496
 20
997.8808146383308
 30
0.0
 10
4679.411154039675
 20
997.9129652040269
 30
0.0
 10
4679.745109740329
 20
997.947763387466
 30
0.0
 10
4680.05067431967
 20
997.9889186853384
 30
0.0
 10
4680.319297712024
 20
998.0359510324716
 30
0.0
 10
4680.544645201937
 20
998.0869981414853
 30
0.0
 10
4680.722871618647
 20
998.1403437406768
 30
0.0
 10
4680.853064195872
 20
998.1947823441366
 30
0.0
 10
4680.929688146982
 20
998.2444856584281
 30
0.0
 10
4680.965750801694
 20
998.2856706265441
 30
0.0
 10
4680.972892717697
 20
998.3061391352676
 30
0.0
 10
4680.97612900971
 20
998.3154142473384
 30
0.0
 11
4677.977920187142
 21
997.8488450507721
 31
0.0
 11
4678.513681228458
 21
997.8596842325408
 31
0.0
 11
4679.061016931025
 21
997.8870144055772
 31
0.0
 11
4679.417086605952
 21
997.9150334681949
 31
0.0
 11
4679.754122258853
 21
997.9504823521954
 31
0.0
 11
4680.062338801653
 21
997.9926815558954
 31
0.0
 11
4680.332894014409
 21
998.0408248411477
 31
0.0
 11
4680.558865542735
 21
998.0932148845601
 31
0.0
 11
4680.736558627189
 21
998.1483366512196
 31
0.0
 11
4680.864096557199
 21
998.2047539071723
 31
0.0
 11
4680.942874125723
 21
998.260858202307
 31
0.0
 11
4680.964923271783
 21
998.2884075706029
 31
0.0
 11
4680.97612900971
 21
998.3154142473384
 31
0.0
  0
SPLINE
  5
215
330
1F
100
AcDbEntity
  8
0
  6
Continuous
 62
     2
100
AcDbSpline
210
0.0
220
0.0
230
1.0
 70
     8
 71
     3
 72
    19
 73
    15
 74
    13
 42
0.0000000001
 43
0.0000000001
 44
0.00000001
 40
0.0
 40
0.0
 40
0.0
 40
0.0
 40
0.3524693073007603
 40
0.6921094531799521
 40
1.012690170891169
 40
1.258130657613183
 40
1.484491314775625
 40
1.689828029709357
 40
1.89567559999733
 40
2.069251025434961
 40
2.208076527387799
 40
2.305322157078784
 40
2.368663084827748
 40
2.397431123413192
 40
2.397431123413192
 40
2.397431123413192
 40
2.397431123413192
 10
4674.502346089585
 20
994.1945711749138
 30
0.0
 10
4674.502345799297
 20
994.0770814058135
 30
0.0
 10
4674.502345229286
 20
993.8463782547531
 30
0.0
 10
4674.50234153233
 20
993.5088148644734
 30
0.0
 10
4674.502337266618
 20
993.2069277477331
 30
0.0
 10
4674.502333220508
 20
992.9428004605652
 30
0.0
 10
4674.502329795687
 20
992.7170878409854
 30
0.0
 10
4674.502326851758
 20
992.5045728602106
 30
0.0
 10
4674.502324804042
 20
992.3096529566678
 30
0.0
 10
4674.502323543182
 20
992.1369034574464
 30
0.0
 10
4674.502322902765
 20
992.0003546050873
 30
0.0
 10
4674.502322591754
 20
991.9005505852897
 30
0.0
 10
4674.502322468968
 20
991.8374323866151
 30
0.0
 10
4674.502322457683
 20
991.8067293978365
 30
0.0
 10
4674.502322454159
 20
991.7971400516416
 30
0.0
 11
4674.502346089585
 21
994.1945711749138
 31
0.0
 11
4674.502344711262
 21
993.8421018676157
 31
0.0
 11
4674.502341277646
 21
993.5024617217539
 31
0.0
 11
4674.502336840765
 21
993.1818810040734
 31
0.0
 11
4674.50233312927
 21
992.9364405173794
 31
0.0
 11
4674.502329741599
 21
992.7100798602423
 31
0.0
 11
4674.502326968532
 21
992.5047431453273
 31
0.0
 11
4674.502324810401
 21
992.2988955750507
 31
0.0
 11
4674.502323542501
 21
992.1253201496177
 31
0.0
 11
4674.502322880589
 21
991.9864946476664
 31
0.0
 11
4674.50232257952
 21
991.8892490179759
 31
0.0
 11
4674.502322469458
 21
991.825908090227
 31
0.0
 11
4674.502322454159
 21
991.7971400516416
 31
0.0
  0
SPLINE
  5
216
330
1F
100
AcDbEntity
  8
0
  6
Continuous
 62
     2
100
AcDbSpline
210
0.0
220
0.0
230
1.0
 70
     8
 71
     3
 72
    28
 73
    24
 74
    22
 42
0.0000000001
 43
0.0000000001
 44
0.00000001
 40
0.0
 40
0.0
 40
0.0
 40
0.0
 40
0.0011449786953128
 40
0.00378066691725
 40
0.0085916583844914
 40
0.0162625468083776
 40
0.0274779259003171
 40
0.0429223893702925
 40
0.0521785410713994
 40
0.0645463220970986
 40
0.0803873174545171
 40
0.1000631121497799
 40
0.1239352911883463
 40
0.1523654395772798
 40
0.1684909276182822
 40
0.1887798277201291
 40
0.2132732003286897
 40
0.2420121058904081
 40
0.2750376048516211
 40
0.3123907576588996
 40
0.3731407001952026
 40
0.4358323173377102
 40
0.4996936078558044
 40
0.4996936078558044
 40
0.4996936078558044
 40
0.4996936078558044
 10
4675.009450960582
 20
991.2900115452294
 30
0.0
 10
4675.009450916843
 20
991.2896298856662
 30
0.0
 10
4675.009450772423
 20
991.2883696633677
 30
0.0
 10
4675.009450913552
 20
991.2855057772332
 30
0.0
 10
4675.009451015058
 20
991.2804665878689
 30
0.0
 10
4675.009451287739
 20
991.2725675015425
 30
0.0
 10
4675.009451595899
 20
991.261123924553
 30
0.0
 10
4675.009451892429
 20
991.2491519264685
 30
0.0
 10
4675.009452161821
 20
991.2367957944057
 30
0.0
 10
4675.009452414167
 20
991.2243074850469
 30
0.0
 10
4675.009452710385
 20
991.2083459613568
 30
0.0
 10
4675.009453048177
 20
991.1885496383293
 30
0.0
 10
4675.009453424519
 20
991.1645569309583
 30
0.0
 10
4675.009453753719
 20
991.1417476591373
 30
0.0
 10
4675.009454047948
 20
991.1201328136292
 30
0.0
 10
4675.009454312028
 20
991.0998302267133
 30
0.0
 10
4675.009454614957
 20
991.0753231672916
 30
0.0
 10
4675.009454951165
 20
991.0465705749161
 30
0.0
 10
4675.009455315027
 20
991.0135313891416
 30
0.0
 10
4675.009455766623
 20
990.9698218577087
 30
0.0
 10
4675.009456273922
 20
990.9162236202162
 30
0.0
 10
4675.009456810031
 20
990.8537893368189
 30
0.0
 10
4675.009457124382
 20
990.8116050342669
 30
0.0
 10
4675.009457283009
 20
990.7903179374281
 30
0.0
 11
4675.009450960582
 21
991.2900115452294
 31
0.0
 11
4675.009450848311
 21
991.2888665665396
 31
0.0
 11
4675.009450868761
 21
991.2862308783177
 31
0.0
 11
4675.009451004744
 21
991.2814198868524
 31
0.0
 11
4675.009451239069
 21
991.2737489984321
 31
0.0
 11
4675.009451554541
 21
991.2625336193446
 31
0.0
 11
4675.009451933972
 21
991.2470891558793
 31
0.0
 11
4675.0094521371
 21
991.2378330041804
 31
0.0
 11
4675.009452387794
 21
991.2254652231572
 31
0.0
 11
4675.009452683142
 21
991.2096242278026
 31
0.0
 11
4675.009453020226
 21
991.1899484331102
 31
0.0
 11
4675.009453396136
 21
991.1660762540746
 31
0.0
 11
4675.009453807955
 21
991.1376461056886
 31
0.0
 11
4675.009454027616
 21
991.1215206176491
 31
0.0
 11
4675.009454291818
 21
991.101231717549
 31
0.0
 11
4675.009454594955
 21
991.0767383449423
 31
0.0
 11
4675.009454931425
 21
991.0479994393826
 31
0.0
 11
4675.009455295621
 21
991.0149739404234
 31
0.0
 11
4675.009455681937
 21
990.9776207876181
 31
0.0
 11
4675.009456259046
 21
990.9168708450845
 31
0.0
 11
4675.009456794935
 21
990.8541792279443
 31
0.0
 11
4675.009457283009
 21
990.7903179374281
 31
0.0
  0
SPLINE
  5
217
330
1F
100
AcDbEntity
  8
0
  6
Continuous
 62
     2
100
AcDbSpline
210
0.0
220
0.0
230
1.0
 70
     8
 71
     3
 72
     9
 73
     5
 74
     3
 42
0.0000000001
 43
0.0000000001
 44
0.00000001
 40
0.0
 40
0.0
 40
0.0
 40
0.0
 40
6.374043160072535
 40
12.78718205034332
 40
12.78718205034332
 40
12.78718205034332
 40
12.78718205034332
 10
4677.977895694698
 20
1030.22223072868
 30
0.0
 10
4677.968094417606
 20
1028.097569964486
 30
0.0
 10
4677.948431746461
 20
1023.835216650478
 30
0.0
 10
4677.945694053936
 20
1019.572818828705
 30
0.0
 10
4677.944321022539
 20
1017.435103956969
 30
0.0
 11
4677.977895694698
 21
1030.22223072868
 31
0.0
 11
4677.95269727428
 21
1023.848237377093
 31
0.0
 11
4677.944321022539
 21
1017.435103956969
 31
0.0
  0
SPLINE
  5
218
330
1F
100
AcDbEntity
  8
0
  6
Continuous
 62
     2
100
AcDbSpline
210
0.0
220
0.0
230
1.0
 70
     8
 71
     3
 72
    18
 73
    14
 74
    12
 42
0.0000000001
 43
0.0000000001
 44
0.00000001
 40
0.0
 40
0.0
 40
0.0
 40
0.0
 40
0.4567189174398318
 40
0.9045527939957008
 40
1.187851380329519
 40
1.451562747081976
 40
1.689827827372157
 40
1.897624985050273
 40
2.071165764412576
 40
2.208078179449217
 40
2.307483501634399
 40
2.36998675951661
 40
2.397437257161216
 40
2.397437257161216
 40
2.397437257161216
 40
2.397437257161216
 10
4544.434996669678
 20
994.1945753355711
 30
0.0
 10
4544.434911200816
 20
994.0423357191953
 30
0.0
 10
4544.434741925807
 20
993.7408181662954
 30
0.0
 10
4544.434671387435
 20
993.3448677039728
 30
0.0
 10
4544.434663821918
 20
993.0132530954318
 30
0.0
 10
4544.434684363418
 20
992.7514947482794
 30
0.0
 10
4544.434711317397
 20
992.5149035582235
 30
0.0
 10
4544.434733504407
 20
992.3083691901813
 30
0.0
 10
4544.434714978446
 20
992.1356191562669
 30
0.0
 10
4544.434694234762
 20
991.9989994343936
 30
0.0
 10
4544.434529882837
 20
991.8993929870805
 30
0.0
 10
4544.434491259204
 20
991.836272477504
 30
0.0
 10
4544.434172132735
 20
991.8062894817314
 30
0.0
 10
4544.434074747357
 20
991.7971398008756
 30
0.0
 11
4544.434996669678
 21
994.1945753355711
 31
0.0
 11
4544.434769723375
 21
993.7378564745168
 31
0.0
 11
4544.434675820026
 21
993.2900226078059
 31
0.0
 11
4544.43466862673
 21
993.0067240215634
 31
0.0
 11
4544.43468666619
 21
992.743012655428
 31
0.0
 11
4544.434712198633
 21
992.5047475765058
 31
0.0
 11
4544.434726628695
 21
992.2969504193287
 31
0.0
 11
4544.434712227096
 21
992.123409640564
 31
0.0
 11
4544.434652724283
 21
991.9864972384574
 31
0.0
 11
4544.434530705216
 21
991.8870919911609
 31
0.0
 11
4544.434338893771
 21
991.8245890275971
 31
0.0
 11
4544.434074747357
 21
991.7971398008756
 31
0.0
  0
SPLINE
  5
219
330
1F
100
AcDbEntity
  8
0
  6
Continuous
 62
     2
100
AcDbSpline
210
0.0
220
0.0
230
1.0
 70
     8
 71
     3
 72
    28
 73
    24
 74
    22
 42
0.0000000001
 43
0.0000000001
 44
0.00000001
 40
0.0
 40
0.0
 40
0.0
 40
0.0
 40
0.0638613234029852
 40
0.1265529533089716
 40
0.1873028872578407
 40
0.2078424982506468
 40
0.2317998946188809
 40
0.258451121908284
 40
0.2870722256818467
 40
0.3169392515222715
 40
0.3473282450446885
 40
0.3757584453777151
 40
0.3996306338291707
 40
0.4193064016562949
 40
0.4351473400835874
 40
0.4475150402920611
 40
0.4567710934078486
 40
0.4722153981464712
 40
0.4834306788451943
 40
0.4911015409470267
 40
0.4959125893545507
 40
0.4985484294771188
 40
0.4996936783564361
 40
0.4996936783564361
 40
0.4996936783564361
 40
0.4996936783564361
 10
4543.926941161998
 20
990.7903179374208
 30
0.0
 10
4543.926929343334
 20
990.8116050420708
 30
0.0
 10
4543.926905922476
 20
990.8537893535957
 30
0.0
 10
4543.926891293756
 20
990.9162236484273
 30
0.0
 10
4543.926885911816
 20
990.964217373014
 30
0.0
 10
4543.926883488125
 20
990.9992996867101
 30
0.0
 10
4543.926882328176
 20
991.0230157648991
 30
0.0
 10
4543.926881726683
 20
991.0494256740401
 30
0.0
 10
4543.926881963879
 20
991.0778054596789
 30
0.0
 10
4543.926883330377
 20
991.1074311673681
 30
0.0
 10
4543.926886056984
 20
991.1369932404871
 30
0.0
 10
4543.926890132236
 20
991.1645570343061
 30
0.0
 10
4543.926895217837
 20
991.1885497526539
 30
0.0
 10
4543.926900810376
 20
991.2083460501224
 30
0.0
 10
4543.926906542676
 20
991.2243075179165
 30
0.0
 10
4543.926912077644
 20
991.2367957473278
 30
0.0
 10
4543.926918577272
 20
991.2491517648591
 30
0.0
 10
4543.926926627081
 20
991.2611236424314
 30
0.0
 10
4543.926935881161
 20
991.2725671192995
 30
0.0
 10
4543.926945198023
 20
991.2804661821142
 30
0.0
 10
4543.926948647968
 20
991.2855054228652
 30
0.0
 10
4543.926954312923
 20
991.2883694782397
 30
0.0
 10
4543.926948638458
 20
991.2896298303885
 30
0.0
 10
4543.926946919727
 20
991.290011576728
 30
0.0
 11
4543.926941161998
 21
990.7903179374208
 31
0.0
 11
4543.926909153058
 21
990.8541792528019
 31
0.0
 11
4543.926892438663
 21
990.9168708804798
 31
0.0
 11
4543.926885060307
 21
990.9776208139806
 31
0.0
 11
4543.926883630595
 21
990.9981604249236
 31
0.0
 11
4543.926882470892
 21
991.0221178212638
 31
0.0
 11
4543.926881874999
 21
991.0487690485465
 31
0.0
 11
4543.926882136728
 21
991.0773901523189
 31
0.0
 11
4543.926883549881
 21
991.1072571781259
 31
0.0
 11
4543.926886408265
 21
991.1376461715139
 31
0.0
 11
4543.926890687149
 21
991.1660763715249
 31
0.0
 11
4543.926895822035
 21
991.1899485594241
 31
0.0
 11
4543.926901449917
 21
991.2096243264464
 31
0.0
 11
4543.926907207781
 21
991.2254652638272
 31
0.0
 11
4543.926912732622
 21
991.2378329628017
 31
0.0
 11
4543.926917661428
 21
991.2470890146052
 31
0.0
 11
4543.926927981386
 21
991.2625333158959
 31
0.0
 11
4543.926937659799
 21
991.2737485924185
 31
0.0
 11
4543.926945544751
 21
991.2814194504679
 31
0.0
 11
4543.926950484334
 21
991.2862304963396
 31
0.0
 11
4543.92695132663
 21
991.2888663363276
 31
0.0
 11
4543.926946919727
 21
991.290011576728
 31
0.0
  0
MTEXT
  5
21B
330
1F
100
AcDbEntity
  8
Symbole_ISO_
 62
     7
100
AcDbMText
 10
4600.304913495524
 20
745.9672728815447
 30
0.0
 40
6.9999998807907
 41
0.0
 71
     5
 72
     1
  1
G. Merafina
  7
CONVERTER_12
 73
     1
 44
0.75727272727273
  0
MTEXT
  5
21C
330
1F
100
AcDbEntity
  8
Symbole_ISO_
 62
     7
100
AcDbMText
 10
4600.304913495524
 20
761.6672728815447
 30
0.0
 40
6.9999998807907
 41
0.0
 71
     5
 72
     1
  1
31.10.2012
  7
CONVERTER_12
 73
     1
 44
0.75727272727273
  0
MTEXT
  5
21D
330
1F
100
AcDbEntity
  8
Symbole_ISO_
 62
     7
100
AcDbMText
 10
4860.379913495524
 20
762.9172728815447
 30
0.0
 40
5.0
 41
0.0
 71
     5
 72
     1
  1
Scale
  7
CONVERTER_11
 73
     1
 44
0.75727272727273
  0
MTEXT
  5
21E
330
1F
100
AcDbEntity
  8
Symbole_ISO_
 62
     7
100
AcDbMText
 10
4570.504913495524
 20
746.3672728815447
 30
0.0
 40
5.0
 41
0.0
 71
     4
 72
     1
  1
Sign.
  7
CONVERTER_11
 73
     1
 44
0.75727272727273
  0
MTEXT
  5
21F
330
1F
100
AcDbEntity
  8
Symbole_ISO_
 62
     7
100
AcDbMText
 10
4570.504913495524
 20
761.6672728815447
 30
0.0
 40
5.0
 41
0.0
 71
     4
 72
     1
  1
Date
  7
CONVERTER_11
 73
     1
 44
0.75727272727273
  0
TEXT
  5
221
330
1F
100
AcDbEntity
  8
Symbole_ISO_
 62
     7
100
AcDbText
 10
4629.304913495524
 20
743.3672728517427
 30
0.0
 40
8.00000011920928
  1
Dust cover for transportation for 24 poles hoods
 41
0.89999994635582
  7
CONVERTER_13
100
AcDbText
  0
TEXT
  5
222
330
1F
100
AcDbEntity
  8
Symbole_ISO_
 62
     7
100
AcDbText
 10
4855.010370637197
 20
746.117272881545
 30
0.0
 40
10.0
  1
1:2
 41
0.67499998211861
  7
CONVERTER_11
100
AcDbText
  0
TEXT
  5
223
330
1F
100
AcDbEntity
  8
Symbole_ISO_
 62
     7
100
AcDbText
 10
4628.800701052775
 20
757.694753130188
 30
0.0
 40
8.00000011920928
  1
CGCP 24 MB
 41
0.89999994635582
  7
CONVERTER_13
100
AcDbText
  0
MTEXT
  5
225
330
1F
100
AcDbEntity
  8
1
 62
     4
100
AcDbMText
 10
4594.532688218587
 20
798.69250149546
 30
0.0
 40
14.0
 41
0.0
 71
     2
 72
     1
  1
 
  7
CONVERTER_14
 73
     1
 44
1.32052821128451
  0
MTEXT
  5
226
330
1F
100
AcDbEntity
  8
1
 62
     4
100
AcDbMText
 10
4635.524619776765
 20
825.0441315662415
 30
0.0
 40
14.0
 41
0.0
 71
     2
 72
     1
  1
 
  7
CONVERTER_14
 73
     1
 44
1.32052821128451
  0
DIMENSION
  5
233
330
1F
100
AcDbEntity
  8
1
100
AcDbDimension
  2
*D2
 10
4511.92688448801
 20
969.0746550326244
 30
0.0
 11
4609.468198923881
 21
969.0746550326244
 31
0.0
 70
    32
  1
<>
 71
     5
 42
-1.0
 53
0.00013888888889
  3
ME10_DIM_10
100
AcDbAlignedDimension
 13
4707.009513359752
 23
992.0846972515756
 33
0.0
 14
4511.92688448801
 24
1030.575981865618
 34
0.0
100
AcDbRotatedDimension
  0
DIMENSION
  5
23F
330
1F
100
AcDbEntity
  8
1
100
AcDbDimension
  2
*D3
 10
4756.999298947225
 20
984.0859895201322
 30
0.0
 11
4756.999298947225
 21
1014.035103957018
 31
0.0
 70
    32
  1
<>
 71
     5
 42
-1.0
 53
90.0
  3
ME10_DIM_11
100
AcDbAlignedDimension
 13
4771.999298947225
 23
1043.984218393904
 33
0.0
 14
4771.999298947225
 24
984.0859895201316
 34
0.0
 50
90.0
100
AcDbRotatedDimension
  0
DIMENSION
  5
24B
330
1F
100
AcDbEntity
  8
1
100
AcDbDimension
  2
*D4
 10
4722.101137890501
 20
866.445021219625
 30
0.0
 11
4722.101137890501
 21
879.6950198251448
 31
0.0
 70
    32
  1
27
 71
     5
 42
-1.0
 53
90.0
  3
ME10_DIM_12
100
AcDbAlignedDimension
 13
4678.177051715341
 23
892.9450184306645
 33
0.0
 14
4677.959921062139
 24
866.4450212196249
 34
0.0
 50
90.0
100
AcDbRotatedDimension
  0
HATCH
  5
24C
330
1F
100
AcDbEntity
  8
Schraffur
  6
Continuous
 62
     7
100
AcDbHatch
 10
0.0
 20
0.0
 30
0.0
210
0.0
220
0.0
230
1.0
  2
SOLID
 70
     1
 71
     1
 91
        1
 92
        1
 93
        4
 72
     1
 10
4892.015965613891
 20
756.9990402773329
 11
4892.015965613891
 21
750.3859627135865
 72
     2
 10
4891.349298947225
 20
750.3859627135865
 40
0.6666666666660603
 50
0.0
 51
180.0
 73
     0
 72
     1
 10
4890.682632280559
 20
750.3859627135865
 11
4890.682632280559
 21
756.9990402773329
 72
     2
 10
4891.349298947225
 20
756.9990402773329
 40
0.6666666666660603
 50
180.0
 51
360.0
 73
     0
 97
        4
330
179
330
1E0
330
17A
330
1E1
 75
     0
 76
     1
 98
        1
 10
0.0
 20
0.0
  0
HATCH
  5
24D
330
1F
100
AcDbEntity
  8
Schraffur
  6
Continuous
 62
     7
100
AcDbHatch
 10
0.0
 20
0.0
 30
0.0
210
0.0
220
0.0
230
1.0
  2
SOLID
 70
     1
 71
     1
 91
        1
 92
        1
 93
        7
 72
     1
 10
4894.682634298166
 20
749.2325426275213
 11
4894.682634298166
 21
758.5791780434059
 72
     2
 10
4894.015967631498
 20
758.5791780434059
 40
0.6666666666678793
 50
0.0
 51
180.0
 73
     1
 72
     1
 10
4893.349300964832
 20
758.5791780434059
 11
4893.349300964832
 21
749.2325451711837
 72
     2
 10
4894.682638702287
 20
749.2325451711837
 40
1.333337737454713
 50
180.0
 51
240.0183606311383
 73
     1
 72
     1
 10
4894.016339896794
 20
748.0776272416643
 11
4898.351610306139
 21
745.576509697812
 72
     2
 10
4898.684758608466
 20
746.1539667551777
 40
0.6666666666668554
 50
240.0183606311324
 51
420.0183606312679
 73
     1
 72
     1
 10
4899.017906910791
 20
746.7314238125435
 11
4894.682634298166
 21
749.2325426275213
 97
        7
330
1DF
330
177
330
1DE
330
176
330
1DD
330
175
330
178
 75
     0
 76
     1
 98
        1
 10
0.0
 20
0.0
  0
HATCH
  5
24E
330
1F
100
AcDbEntity
  8
Schraffur
  6
Continuous
 62
     7
100
AcDbHatch
 10
0.0
 20
0.0
 30
0.0
210
0.0
220
0.0
230
1.0
  2
SOLID
 70
     1
 71
     1
 91
        1
 92
        1
 93
       13
 72
     2
 10
4896.545908864695
 20
760.1966174288215
 40
0.5299324249509441
 50
29.9999999999662
 51
180.0
 73
     1
 72
     1
 10
4896.015976439743
 20
760.1966174288215
 11
4896.015976439745
 21
750.3859627135865
 72
     2
 10
4896.682643106411
 20
750.3859627135865
 40
0.6666666666660603
 50
180.0
 51
360.0
 73
     1
 72
     1
 10
4897.349309773077
 20
750.3859627135865
 11
4897.349309773077
 21
757.1982933399529
 72
     1
 10
4897.349309773077
 20
757.1982933399529
 11
4899.060623812631
 21
754.2342104757415
 72
     2
 10
4899.349298947225
 20
754.4008771424081
 40
0.3333333333326854
 50
210.0000000000568
 51
329.9999999999432
 73
     1
 72
     1
 10
4899.637974081819
 20
754.2342104757415
 11
4901.349288121373
 21
757.1982933399529
 72
     1
 10
4901.349288121373
 20
757.1982933399529
 11
4901.349288121373
 21
747.2673583273709
 72
     2
 10
4902.015954788039
 20
747.2673583273709
 40
0.6666666666660603
 50
180.0
 51
360.0
 73
     1
 72
     1
 10
4902.682621454707
 20
747.2673583273709
 11
4902.682621454707
 21
760.1966174288214
 72
     2
 10
4902.152689029756
 20
760.1966174288214
 40
0.5299324249508572
 50
0.0
 51
150.0000000000723
 73
     1
 72
     1
 10
4901.693754087459
 20
760.4615836412967
 11
4899.349298947225
 21
756.4008682223451
 72
     1
 10
4899.349298947225
 20
756.4008682223451
 11
4897.004843806992
 21
760.4615836412967
 97
       13
330
173
330
1DC
330
172
330
1DB
330
171
330
170
330
1DA
330
16F
330
16E
330
1D9
330
16D
330
1D8
330
174
 75
     0
 76
     1
 98
        1
 10
0.0
 20
0.0
  0
HATCH
  5
24F
330
1F
100
AcDbEntity
  8
1
  6
Continuous
 62
     7
100
AcDbHatch
 10
0.0
 20
0.0
 30
0.0
210
0.0
220
0.0
230
1.0
  2
SOLID
 70
     1
 71
     1
 91
        1
 92
        1
 93
       14
 72
     1
 10
4907.754684026471
 20
749.8085056562207
 11
4905.015778565279
 21
748.2283678901478
 72
     2
 10
4904.682630262953
 20
748.8058249475141
 40
0.666666666666913
 50
60.01836063122456
 51
179.9999999999511
 73
     0
 72
     1
 10
4904.015963596286
 20
748.8058249475135
 11
4904.015963596286
 21
758.5791780434059
 72
     2
 10
4904.682630262953
 20
758.5791780434054
 40
0.6666666666669129
 50
180.0000000000488
 51
299.9816393687755
 73
     0
 72
     1
 10
4905.015778565279
 20
759.1566351007717
 11
4907.754684026471
 21
757.5764973346987
 72
     2
 10
4907.421535724147
 20
756.9990402773321
 40
0.6666666666664008
 50
299.9816393686302
 51
479.9816393689695
 73
     0
 72
     1
 10
4907.08838742182
 20
756.4215832199671
 11
4905.349296929619
 21
757.4249046577745
 72
     1
 10
4905.349296929619
 20
757.4249046577745
 11
4905.349296929619
 21
754.3591681621265
 72
     1
 10
4905.349296929619
 20
754.3591681621265
 11
4907.421535724147
 21
754.3591681621265
 72
     2
 10
4907.421535724147
 20
753.6925014954597
 40
0.6666666666667993
 50
270.0
 51
450.0
 73
     0
 72
     1
 10
4907.421535724147
 20
753.0258348287929
 11
4905.349296929619
 21
753.0258348287929
 72
     1
 10
4905.349296929619
 20
753.0258348287929
 11
4905.349296929619
 21
749.9600983331449
 72
     1
 10
4905.349296929619
 20
749.9600983331449
 11
4907.08838742182
 21
750.9634197709523
 72
     2
 10
4907.421535724147
 20
750.3859627135873
 40
0.666666666666401
 50
240.0183606310305
 51
420.0183606313697
 73
     0
 97
       14
330
156
330
155
330
154
330
1D1
330
153
330
152
330
151
330
1D0
330
150
330
1C6
330
158
330
1C7
330
157
330
1D2
 75
     0
 76
     1
 98
        1
 10
0.0
 20
0.0
  0
ENDSEC
  0
SECTION
  2
OBJECTS
  0
DICTIONARY
  5
C
330
0
100
AcDbDictionary
281
     1
  3
ACAD_GROUP
350
D
  3
ACAD_LAYOUT
350
1A
  3
ACAD_MATERIAL
350
3B
  3
ACAD_MLEADERSTYLE
350
252
  3
ACAD_MLINESTYLE
350
17
  3
ACAD_PLOTSETTINGS
350
19
  3
ACAD_PLOTSTYLENAME
350
E
  3
ACAD_SCALELIST
350
4D
  3
ACAD_VISUALSTYLE
350
2A
  3
AcDbVariableDictionary
350
250
  0
DICTIONARY
  5
D
102
{ACAD_REACTORS
330
C
102
}
330
C
100
AcDbDictionary
281
     1
  0
DICTIONARY
  5
1A
102
{ACAD_REACTORS
330
C
102
}
330
C
100
AcDbDictionary
281
     1
  3
Layout1
350
1E
  3
Layout2
350
26
  3
Model
350
22
  0
DICTIONARY
  5
3B
102
{ACAD_REACTORS
330
C
102
}
330
C
100
AcDbDictionary
281
     1
  3
ByBlock
350
3D
  3
ByLayer
350
3C
  3
Global
350
3E
  0
DICTIONARY
  5
252
102
{ACAD_REACTORS
330
C
102
}
330
C
100
AcDbDictionary
281
     1
  0
DICTIONARY
  5
17
102
{ACAD_REACTORS
330
C
102
}
330
C
100
AcDbDictionary
281
     1
  3
Standard
350
18
  0
DICTIONARY
  5
19
102
{ACAD_REACTORS
330
C
102
}
330
C
100
AcDbDictionary
281
     1
  0
ACDBDICTIONARYWDFLT
  5
E
102
{ACAD_REACTORS
330
C
102
}
330
C
100
AcDbDictionary
281
     1
  3
Normal
350
F
100
AcDbDictionaryWithDefault
340
F
  0
DICTIONARY
  5
4D
102
{ACAD_REACTORS
330
C
102
}
330
C
100
AcDbDictionary
281
     1
  3
A0
350
4E
  3
A1
350
4F
  3
A2
350
50
  3
A3
350
51
  3
A4
350
52
  3
A5
350
53
  3
A6
350
54
  3
A7
350
55
  3
A8
350
56
  3
A9
350
57
  3
B0
350
58
  3
B1
350
59
  3
B2
350
5A
  3
B3
350
5B
  3
B4
350
5C
  3
B5
350
5D
  3
B6
350
5E
  3
B7
350
5F
  3
B8
350
60
  3
B9
350
61
  3
C0
350
62
  3
C1
350
63
  3
C2
350
64
  3
C3
350
65
  3
C4
350
66
  3
C5
350
67
  3
C6
350
68
  3
C7
350
69
  3
C8
350
6A
  3
C9
350
6B
  3
D0
350
6C
  3
D1
350
6D
  3
D2
350
6E
  0
DICTIONARY
  5
2A
102
{ACAD_REACTORS
330
C
102
}
330
C
100
AcDbDictionary
281
     1
  3
2dWireframe
350
2F
  3
3D Hidden
350
31
  3
3dWireframe
350
30
  3
Basic
350
32
  3
Brighten
350
36
  3
ColorChange
350
3A
  3
Conceptual
350
34
  3
Dim
350
35
  3
Facepattern
350
39
  3
Flat
350
2B
  3
FlatWithEdges
350
2C
  3
Gouraud
350
2D
  3
GouraudWithEdges
350
2E
  3
Linepattern
350
38
  3
Realistic
350
33
  3
Thicken
350
37
  0
DICTIONARY
  5
250
102
{ACAD_REACTORS
330
C
102
}
330
C
100
AcDbDictionary
281
     1
  3
CANNOSCALE
350
253
  3
DIMASSOC
350
254
  3
HIDETEXT
350
255
  0
LAYOUT
  5
1E
102
{ACAD_REACTORS
330
1A
102
}
330
1A
100
AcDbPlotSettings
  1

  2
none_device
  4

  6

 40
0.0
 41
0.0
 42
0.0
 43
0.0
 44
0.0
 45
0.0
 46
0.0
 47
0.0
 48
0.0
 49
0.0
140
0.0
141
0.0
142
1.0
143
1.0
 70
   688
 72
     0
 73
     0
 74
     5
  7

 75
    16
147
1.0
148
0.0
149
0.0
100
AcDbLayout
  1
Layout1
 70
     1
 71
     1
 10
0.0
 20
0.0
 11
12.0
 21
9.0
 12
0.0
 22
0.0
 32
0.0
 14
1.00000000000000E+20
 24
1.00000000000000E+20
 34
1.00000000000000E+20
 15
-1.00000000000000E+20
 25
-1.00000000000000E+20
 35
-1.00000000000000E+20
146
0.0
 13
0.0
 23
0.0
 33
0.0
 16
1.0
 26
0.0
 36
0.0
 17
0.0
 27
1.0
 37
0.0
 76
     0
330
1B
  0
LAYOUT
  5
26
102
{ACAD_REACTORS
330
1A
102
}
330
1A
100
AcDbPlotSettings
  1

  2
none_device
  4

  6

 40
0.0
 41
0.0
 42
0.0
 43
0.0
 44
0.0
 45
0.0
 46
0.0
 47
0.0
 48
0.0
 49
0.0
140
0.0
141
0.0
142
1.0
143
1.0
 70
   688
 72
     0
 73
     0
 74
     5
  7

 75
    16
147
1.0
148
0.0
149
0.0
100
AcDbLayout
  1
Layout2
 70
     1
 71
     2
 10
0.0
 20
0.0
 11
0.0
 21
0.0
 12
0.0
 22
0.0
 32
0.0
 14
0.0
 24
0.0
 34
0.0
 15
0.0
 25
0.0
 35
0.0
146
0.0
 13
0.0
 23
0.0
 33
0.0
 16
1.0
 26
0.0
 36
0.0
 17
0.0
 27
1.0
 37
0.0
 76
     0
330
23
  0
LAYOUT
  5
22
102
{ACAD_REACTORS
330
1A
102
}
330
1A
100
AcDbPlotSettings
  1

  2
none_device
  4

  6

 40
0.0
 41
0.0
 42
0.0
 43
0.0
 44
0.0
 45
0.0
 46
0.0
 47
0.0
 48
0.0
 49
0.0
140
0.0
141
0.0
142
1.0
143
1.0
 70
  1712
 72
     0
 73
     0
 74
     0
  7

 75
     0
147
1.0
148
0.0
149
0.0
100
AcDbLayout
  1
Model
 70
     1
 71
     0
 10
0.0
 20
0.0
 11
12.0
 21
9.0
 12
0.0
 22
0.0
 32
0.0
 14
4367.499298947225
 24
738.1925014954597
 34
0.0
 15
4922.499298947225
 25
1139.19250149546
 35
0.0
146
0.0
 13
0.0
 23
0.0
 33
0.0
 16
1.0
 26
0.0
 36
0.0
 17
0.0
 27
1.0
 37
0.0
 76
     0
330
1F
331
29
  0
MATERIAL
  5
3D
102
{ACAD_REACTORS
330
3B
102
}
102
{ACAD_XDICTIONARY
360
278
102
}
330
3B
100
AcDbMaterial
  1
ByBlock
  0
MATERIAL
  5
3C
102
{ACAD_REACTORS
330
3B
102
}
102
{ACAD_XDICTIONARY
360
276
102
}
330
3B
100
AcDbMaterial
  1
ByLayer
  0
MATERIAL
  5
3E
102
{ACAD_REACTORS
330
3B
102
}
102
{ACAD_XDICTIONARY
360
27A
102
}
330
3B
100
AcDbMaterial
  1
Global
  0
MLINESTYLE
  5
18
102
{ACAD_REACTORS
330
17
102
}
330
17
100
AcDbMlineStyle
  2
Standard
 70
     0
  3

 62
   256
 51
90.0
 52
90.0
 71
     2
 49
0.5
 62
   256
  6
BYLAYER
 49
-0.5
 62
   256
  6
BYLAYER
  0
ACDBPLACEHOLDER
  5
F
102
{ACAD_REACTORS
330
E
102
}
330
E
  0
SCALE
  5
4E
102
{ACAD_REACTORS
330
4D
102
}
330
4D
100
AcDbScale
 70
     0
300
1:1
140
1.0
141
1.0
290
     1
  0
SCALE
  5
4F
102
{ACAD_REACTORS
330
4D
102
}
330
4D
100
AcDbScale
 70
     0
300
1:2
140
1.0
141
2.0
290
     0
  0
SCALE
  5
50
102
{ACAD_REACTORS
330
4D
102
}
330
4D
100
AcDbScale
 70
     0
300
1:4
140
1.0
141
4.0
290
     0
  0
SCALE
  5
51
102
{ACAD_REACTORS
330
4D
102
}
330
4D
100
AcDbScale
 70
     0
300
1:5
140
1.0
141
5.0
290
     0
  0
SCALE
  5
52
102
{ACAD_REACTORS
330
4D
102
}
330
4D
100
AcDbScale
 70
     0
300
1:8
140
1.0
141
8.0
290
     0
  0
SCALE
  5
53
102
{ACAD_REACTORS
330
4D
102
}
330
4D
100
AcDbScale
 70
     0
300
1:10
140
1.0
141
10.0
290
     0
  0
SCALE
  5
54
102
{ACAD_REACTORS
330
4D
102
}
330
4D
100
AcDbScale
 70
     0
300
1:16
140
1.0
141
16.0
290
     0
  0
SCALE
  5
55
102
{ACAD_REACTORS
330
4D
102
}
330
4D
100
AcDbScale
 70
     0
300
1:20
140
1.0
141
20.0
290
     0
  0
SCALE
  5
56
102
{ACAD_REACTORS
330
4D
102
}
330
4D
100
AcDbScale
 70
     0
300
1:30
140
1.0
141
30.0
290
     0
  0
SCALE
  5
57
102
{ACAD_REACTORS
330
4D
102
}
330
4D
100
AcDbScale
 70
     0
300
1:40
140
1.0
141
40.0
290
     0
  0
SCALE
  5
58
102
{ACAD_REACTORS
330
4D
102
}
330
4D
100
AcDbScale
 70
     0
300
1:50
140
1.0
141
50.0
290
     0
  0
SCALE
  5
59
102
{ACAD_REACTORS
330
4D
102
}
330
4D
100
AcDbScale
 70
     0
300
1:100
140
1.0
141
100.0
290
     0
  0
SCALE
  5
5A
102
{ACAD_REACTORS
330
4D
102
}
330
4D
100
AcDbScale
 70
     0
300
2:1
140
2.0
141
1.0
290
     0
  0
SCALE
  5
5B
102
{ACAD_REACTORS
330
4D
102
}
330
4D
100
AcDbScale
 70
     0
300
4:1
140
4.0
141
1.0
290
     0
  0
SCALE
  5
5C
102
{ACAD_REACTORS
330
4D
102
}
330
4D
100
AcDbScale
 70
     0
300
8:1
140
8.0
141
1.0
290
     0
  0
SCALE
  5
5D
102
{ACAD_REACTORS
330
4D
102
}
330
4D
100
AcDbScale
 70
     0
300
10:1
140
10.0
141
1.0
290
     0
  0
SCALE
  5
5E
102
{ACAD_REACTORS
330
4D
102
}
330
4D
100
AcDbScale
 70
     0
300
100:1
140
100.0
141
1.0
290
     0
  0
SCALE
  5
5F
102
{ACAD_REACTORS
330
4D
102
}
330
4D
100
AcDbScale
 70
     0
300
1/128" = 1'-0"
140
0.0078125
141
12.0
290
     0
  0
SCALE
  5
60
102
{ACAD_REACTORS
330
4D
102
}
330
4D
100
AcDbScale
 70
     0
300
1/64" = 1'-0"
140
0.015625
141
12.0
290
     0
  0
SCALE
  5
61
102
{ACAD_REACTORS
330
4D
102
}
330
4D
100
AcDbScale
 70
     0
300
1/32" = 1'-0"
140
0.03125
141
12.0
290
     0
  0
SCALE
  5
62
102
{ACAD_REACTORS
330
4D
102
}
330
4D
100
AcDbScale
 70
     0
300
1/16" = 1'-0"
140
0.0625
141
12.0
290
     0
  0
SCALE
  5
63
102
{ACAD_REACTORS
330
4D
102
}
330
4D
100
AcDbScale
 70
     0
300
3/32" = 1'-0"
140
0.09375
141
12.0
290
     0
  0
SCALE
  5
64
102
{ACAD_REACTORS
330
4D
102
}
330
4D
100
AcDbScale
 70
     0
300
1/8" = 1'-0"
140
0.125
141
12.0
290
     0
  0
SCALE
  5
65
102
{ACAD_REACTORS
330
4D
102
}
330
4D
100
AcDbScale
 70
     0
300
3/16" = 1'-0"
140
0.1875
141
12.0
290
     0
  0
SCALE
  5
66
102
{ACAD_REACTORS
330
4D
102
}
330
4D
100
AcDbScale
 70
     0
300
1/4" = 1'-0"
140
0.25
141
12.0
290
     0
  0
SCALE
  5
67
102
{ACAD_REACTORS
330
4D
102
}
330
4D
100
AcDbScale
 70
     0
300
3/8" = 1'-0"
140
0.375
141
12.0
290
     0
  0
SCALE
  5
68
102
{ACAD_REACTORS
330
4D
102
}
330
4D
100
AcDbScale
 70
     0
300
1/2" = 1'-0"
140
0.5
141
12.0
290
     0
  0
SCALE
  5
69
102
{ACAD_REACTORS
330
4D
102
}
330
4D
100
AcDbScale
 70
     0
300
3/4" = 1'-0"
140
0.75
141
12.0
290
     0
  0
SCALE
  5
6A
102
{ACAD_REACTORS
330
4D
102
}
330
4D
100
AcDbScale
 70
     0
300
1" = 1'-0"
140
1.0
141
12.0
290
     0
  0
SCALE
  5
6B
102
{ACAD_REACTORS
330
4D
102
}
330
4D
100
AcDbScale
 70
     0
300
1-1/2" = 1'-0"
140
1.5
141
12.0
290
     0
  0
SCALE
  5
6C
102
{ACAD_REACTORS
330
4D
102
}
330
4D
100
AcDbScale
 70
     0
300
3" = 1'-0"
140
3.0
141
12.0
290
     0
  0
SCALE
  5
6D
102
{ACAD_REACTORS
330
4D
102
}
330
4D
100
AcDbScale
 70
     0
300
6" = 1'-0"
140
6.0
141
12.0
290
     0
  0
SCALE
  5
6E
102
{ACAD_REACTORS
330
4D
102
}
330
4D
100
AcDbScale
 70
     0
300
1'-0" = 1'-0"
140
12.0
141
12.0
290
     0
  0
VISUALSTYLE
  5
2F
102
{ACAD_REACTORS
330
2A
102
}
102
{ACAD_XDICTIONARY
360
25E
102
}
330
2A
100
AcDbVisualStyle
  2
2dWireframe
 70
     4
 71
     0
 72
     2
 73
     0
 90
        0
 40
-0.6
 41
-30.0
 62
     5
 63
     7
 74
     1
 91
        4
 64
     7
 65
   257
 75
     1
175
     1
 42
1.0
 92
        0
 66
   257
 43
1.0
 76
     1
 77
     6
 78
     2
 67
     7
 79
     5
170
     0
171
     0
290
     0
174
     0
 93
        1
 44
0.0
173
     0
291
     0
 45
0.0
1001
ACAD
1000
AcDbSavedByObjectVersion
1070
     0
  0
VISUALSTYLE
  5
31
102
{ACAD_REACTORS
330
2A
102
}
102
{ACAD_XDICTIONARY
360
262
102
}
330
2A
100
AcDbVisualStyle
  2
3D Hidden
 70
     6
 71
     1
 72
     2
 73
     2
 90
        0
 40
-0.6
 41
-30.0
 62
     5
 63
     7
 74
     2
 91
        2
 64
     7
 65
   257
 75
     2
175
     1
 42
40.0
 92
        0
 66
   257
 43
1.0
 76
     1
 77
     6
 78
     2
 67
     7
 79
     3
170
     0
171
     0
290
     0
174
     0
 93
        1
 44
0.0
173
     0
291
     0
 45
0.0
1001
ACAD
1000
AcDbSavedByObjectVersion
1070
     0
  0
VISUALSTYLE
  5
30
102
{ACAD_REACTORS
330
2A
102
}
102
{ACAD_XDICTIONARY
360
260
102
}
330
2A
100
AcDbVisualStyle
  2
3dWireframe
 70
     5
 71
     0
 72
     2
 73
     0
 90
        0
 40
-0.6
 41
-30.0
 62
     5
 63
     7
 74
     1
 91
        4
 64
     7
 65
   257
 75
     1
175
     1
 42
1.0
 92
        0
 66
   257
 43
1.0
 76
     1
 77
     6
 78
     2
 67
     7
 79
     5
170
     0
171
     0
290
     0
174
     0
 93
        1
 44
0.0
173
     0
291
     0
 45
0.0
1001
ACAD
1000
AcDbSavedByObjectVersion
1070
     0
  0
VISUALSTYLE
  5
32
102
{ACAD_REACTORS
330
2A
102
}
102
{ACAD_XDICTIONARY
360
264
102
}
330
2A
100
AcDbVisualStyle
  2
Basic
 70
     7
 71
     1
 72
     0
 73
     1
 90
        0
 40
-0.6
 41
-30.0
 62
     5
 63
     7
 74
     0
 91
        4
 64
     7
 65
   257
 75
     1
175
     1
 42
1.0
 92
        8
 66
     7
 43
1.0
 76
     1
 77
     6
 78
     2
 67
     7
 79
     5
170
     0
171
     0
290
     0
174
     0
 93
        1
 44
0.0
173
     0
291
     1
 45
0.0
1001
ACAD
1000
AcDbSavedByObjectVersion
1070
     0
  0
VISUALSTYLE
  5
36
102
{ACAD_REACTORS
330
2A
102
}
102
{ACAD_XDICTIONARY
360
26C
102
}
330
2A
100
AcDbVisualStyle
  2
Brighten
 70
    12
 71
     2
 72
     2
 73
     0
 90
        0
 40
-0.6
 41
-30.0
 62
     5
 63
     7
 74
     1
 91
        4
 64
     7
 65
   257
 75
     1
175
     1
 42
1.0
 92
        8
 66
     7
 43
1.0
 76
     1
 77
     6
 78
     2
 67
     7
 79
     5
170
     0
171
     0
290
     0
174
     0
 93
        1
 44
50.0
173
     0
291
     1
 45
0.0
1001
ACAD
1000
AcDbSavedByObjectVersion
1070
     0
  0
VISUALSTYLE
  5
3A
102
{ACAD_REACTORS
330
2A
102
}
102
{ACAD_XDICTIONARY
360
274
102
}
330
2A
100
AcDbVisualStyle
  2
ColorChange
 70
    16
 71
     2
 72
     2
 73
     3
 90
        0
 40
-0.6
 41
-30.0
 62
     5
 63
     8
 74
     1
 91
        4
 64
     7
 65
   257
 75
     1
175
     1
 42
1.0
 92
        8
 66
     8
 43
1.0
 76
     1
 77
     6
 78
     2
 67
     7
 79
     5
170
     0
171
     0
290
     0
174
     0
 93
        1
 44
0.0
173
     0
291
     1
 45
0.0
1001
ACAD
1000
AcDbSavedByObjectVersion
1070
     0
  0
VISUALSTYLE
  5
34
102
{ACAD_REACTORS
330
2A
102
}
102
{ACAD_XDICTIONARY
360
268
102
}
330
2A
100
AcDbVisualStyle
  2
Conceptual
 70
     9
 71
     3
 72
     2
 73
     0
 90
        0
 40
-0.6
 41
-30.0
 62
     5
 63
     7
 74
     2
 91
        2
 64
     7
 65
   257
 75
     1
175
     1
 42
40.0
 92
        8
 66
     7
 43
1.0
 76
     1
 77
     6
 78
     2
 67
     7
 79
     3
170
     0
171
     0
290
     0
174
     0
 93
        1
 44
0.0
173
     0
291
     0
 45
0.0
1001
ACAD
1000
AcDbSavedByObjectVersion
1070
     0
  0
VISUALSTYLE
  5
35
102
{ACAD_REACTORS
330
2A
102
}
102
{ACAD_XDICTIONARY
360
26A
102
}
330
2A
100
AcDbVisualStyle
  2
Dim
 70
    11
 71
     2
 72
     2
 73
     0
 90
        0
 40
-0.6
 41
-30.0
 62
     5
 63
     7
 74
     1
 91
        4
 64
     7
 65
   257
 75
     1
175
     1
 42
1.0
 92
        8
 66
     7
 43
1.0
 76
     1
 77
     6
 78
     2
 67
     7
 79
     5
170
     0
171
     0
290
     0
174
     0
 93
        1
 44
-50.0
173
     0
291
     1
 45
0.0
1001
ACAD
1000
AcDbSavedByObjectVersion
1070
     0
  0
VISUALSTYLE
  5
39
102
{ACAD_REACTORS
330
2A
102
}
102
{ACAD_XDICTIONARY
360
272
102
}
330
2A
100
AcDbVisualStyle
  2
Facepattern
 70
    15
 71
     2
 72
     2
 73
     0
 90
        0
 40
-0.6
 41
-30.0
 62
     5
 63
     7
 74
     1
 91
        4
 64
     7
 65
   257
 75
     1
175
     1
 42
1.0
 92
        8
 66
     7
 43
1.0
 76
     1
 77
     6
 78
     2
 67
     7
 79
     5
170
     0
171
     0
290
     0
174
     0
 93
        1
 44
0.0
173
     0
291
     1
 45
0.0
1001
ACAD
1000
AcDbSavedByObjectVersion
1070
     0
  0
VISUALSTYLE
  5
2B
102
{ACAD_REACTORS
330
2A
102
}
102
{ACAD_XDICTIONARY
360
256
102
}
330
2A
100
AcDbVisualStyle
  2
Flat
 70
     0
 71
     2
 72
     1
 73
     1
 90
        2
 40
-0.6
 41
30.0
 62
     5
 63
     7
 74
     0
 91
        4
 64
     7
 65
   257
 75
     1
175
     1
 42
1.0
 92
        8
 66
     7
 43
1.0
 76
     1
 77
     6
 78
     2
 67
     7
 79
     5
170
     0
171
     0
290
     0
174
     0
 93
       13
 44
0.0
173
     0
291
     1
 45
0.0
1001
ACAD
1000
AcDbSavedByObjectVersion
1070
     0
  0
VISUALSTYLE
  5
2C
102
{ACAD_REACTORS
330
2A
102
}
102
{ACAD_XDICTIONARY
360
258
102
}
330
2A
100
AcDbVisualStyle
  2
FlatWithEdges
 70
     1
 71
     2
 72
     1
 73
     1
 90
        2
 40
-0.6
 41
30.0
 62
     5
 63
     7
 74
     1
 91
        4
 64
     7
 65
   257
 75
     1
175
     1
 42
1.0
 92
        0
 66
   257
 43
1.0
 76
     1
 77
     6
 78
     2
 67
     7
 79
     5
170
     0
171
     0
290
     0
174
     0
 93
       13
 44
0.0
173
     0
291
     1
 45
0.0
1001
ACAD
1000
AcDbSavedByObjectVersion
1070
     0
  0
VISUALSTYLE
  5
2D
102
{ACAD_REACTORS
330
2A
102
}
102
{ACAD_XDICTIONARY
360
25A
102
}
330
2A
100
AcDbVisualStyle
  2
Gouraud
 70
     2
 71
     2
 72
     2
 73
     1
 90
        2
 40
-0.6
 41
30.0
 62
     5
 63
     7
 74
     0
 91
        4
 64
     7
 65
   257
 75
     1
175
     1
 42
1.0
 92
        0
 66
     7
 43
1.0
 76
     1
 77
     6
 78
     2
 67
     7
 79
     5
170
     0
171
     0
290
     0
174
     0
 93
       13
 44
0.0
173
     0
291
     1
 45
0.0
1001
ACAD
1000
AcDbSavedByObjectVersion
1070
     0
  0
VISUALSTYLE
  5
2E
102
{ACAD_REACTORS
330
2A
102
}
102
{ACAD_XDICTIONARY
360
25C
102
}
330
2A
100
AcDbVisualStyle
  2
GouraudWithEdges
 70
     3
 71
     2
 72
     2
 73
     1
 90
        2
 40
-0.6
 41
30.0
 62
     5
 63
     7
 74
     1
 91
        4
 64
     7
 65
   257
 75
     1
175
     1
 42
1.0
 92
        0
 66
   257
 43
1.0
 76
     1
 77
     6
 78
     2
 67
     7
 79
     5
170
     0
171
     0
290
     0
174
     0
 93
       13
 44
0.0
173
     0
291
     1
 45
0.0
1001
ACAD
1000
AcDbSavedByObjectVersion
1070
     0
  0
VISUALSTYLE
  5
38
102
{ACAD_REACTORS
330
2A
102
}
102
{ACAD_XDICTIONARY
360
270
102
}
330
2A
100
AcDbVisualStyle
  2
Linepattern
 70
    14
 71
     2
 72
     2
 73
     0
 90
        0
 40
-0.6
 41
-30.0
 62
     5
 63
     7
 74
     1
 91
        4
 64
     7
 65
   257
 75
     7
175
     7
 42
1.0
 92
        8
 66
     7
 43
1.0
 76
     1
 77
     6
 78
     2
 67
     7
 79
     5
170
     0
171
     0
290
     0
174
     0
 93
        1
 44
0.0
173
     0
291
     1
 45
0.0
1001
ACAD
1000
AcDbSavedByObjectVersion
1070
     0
  0
VISUALSTYLE
  5
33
102
{ACAD_REACTORS
330
2A
102
}
102
{ACAD_XDICTIONARY
360
266
102
}
330
2A
100
AcDbVisualStyle
  2
Realistic
 70
     8
 71
     2
 72
     2
 73
     0
 90
        0
 40
-0.6
 41
-30.0
 62
     5
 63
     7
 74
     1
 91
        0
 64
     7
 65
   257
 75
     1
175
     1
 42
1.0
 92
        8
 66
     8
 43
1.0
 76
     1
 77
     6
 78
     2
 67
     7
 79
     5
170
     0
171
     0
290
     0
174
     0
 93
       13
 44
0.0
173
     0
291
     0
 45
0.0
1001
ACAD
1000
AcDbSavedByObjectVersion
1070
     0
  0
VISUALSTYLE
  5
37
102
{ACAD_REACTORS
330
2A
102
}
102
{ACAD_XDICTIONARY
360
26E
102
}
330
2A
100
AcDbVisualStyle
  2
Thicken
 70
    13
 71
     2
 72
     2
 73
     0
 90
        0
 40
-0.6
 41
-30.0
 62
     5
 63
     7
 74
     1
 91
        4
 64
     7
 65
   257
 75
     1
175
     1
 42
1.0
 92
       12
 66
     7
 43
1.0
 76
     1
 77
     6
 78
     2
 67
     7
 79
     5
170
     0
171
     0
290
     0
174
     0
 93
        1
 44
0.0
173
     0
291
     1
 45
0.0
1001
ACAD
1000
AcDbSavedByObjectVersion
1070
     0
  0
DICTIONARYVAR
  5
253
102
{ACAD_REACTORS
330
250
102
}
330
250
100
DictionaryVariables
280
     0
  1
1:1
  0
DICTIONARYVAR
  5
254
102
{ACAD_REACTORS
330
250
102
}
330
250
100
DictionaryVariables
280
     0
  1
2
  0
DICTIONARYVAR
  5
255
102
{ACAD_REACTORS
330
250
102
}
330
250
100
DictionaryVariables
280
     0
  1
1
  0
DICTIONARY
  5
278
330
3D
100
AcDbDictionary
280
     1
281
     1
  3
ACAD_XREC_ROUNDTRIP
360
279
  0
DICTIONARY
  5
276
330
3C
100
AcDbDictionary
280
     1
281
     1
  3
ACAD_XREC_ROUNDTRIP
360
277
  0
DICTIONARY
  5
27A
330
3E
100
AcDbDictionary
280
     1
281
     1
  3
ACAD_XREC_ROUNDTRIP
360
27B
  0
DICTIONARY
  5
25E
330
2F
100
AcDbDictionary
280
     1
281
     1
  3
ACAD_XREC_ROUNDTRIP
360
25F
  0
DICTIONARY
  5
262
330
31
100
AcDbDictionary
280
     1
281
     1
  3
ACAD_XREC_ROUNDTRIP
360
263
  0
DICTIONARY
  5
260
330
30
100
AcDbDictionary
280
     1
281
     1
  3
ACAD_XREC_ROUNDTRIP
360
261
  0
DICTIONARY
  5
264
330
32
100
AcDbDictionary
280
     1
281
     1
  3
ACAD_XREC_ROUNDTRIP
360
265
  0
DICTIONARY
  5
26C
330
36
100
AcDbDictionary
280
     1
281
     1
  3
ACAD_XREC_ROUNDTRIP
360
26D
  0
DICTIONARY
  5
274
330
3A
100
AcDbDictionary
280
     1
281
     1
  3
ACAD_XREC_ROUNDTRIP
360
275
  0
DICTIONARY
  5
268
330
34
100
AcDbDictionary
280
     1
281
     1
  3
ACAD_XREC_ROUNDTRIP
360
269
  0
DICTIONARY
  5
26A
330
35
100
AcDbDictionary
280
     1
281
     1
  3
ACAD_XREC_ROUNDTRIP
360
26B
  0
DICTIONARY
  5
272
330
39
100
AcDbDictionary
280
     1
281
     1
  3
ACAD_XREC_ROUNDTRIP
360
273
  0
DICTIONARY
  5
256
330
2B
100
AcDbDictionary
280
     1
281
     1
  3
ACAD_XREC_ROUNDTRIP
360
257
  0
DICTIONARY
  5
258
330
2C
100
AcDbDictionary
280
     1
281
     1
  3
ACAD_XREC_ROUNDTRIP
360
259
  0
DICTIONARY
  5
25A
330
2D
100
AcDbDictionary
280
     1
281
     1
  3
ACAD_XREC_ROUNDTRIP
360
25B
  0
DICTIONARY
  5
25C
330
2E
100
AcDbDictionary
280
     1
281
     1
  3
ACAD_XREC_ROUNDTRIP
360
25D
  0
DICTIONARY
  5
270
330
38
100
AcDbDictionary
280
     1
281
     1
  3
ACAD_XREC_ROUNDTRIP
360
271
  0
DICTIONARY
  5
266
330
33
100
AcDbDictionary
280
     1
281
     1
  3
ACAD_XREC_ROUNDTRIP
360
267
  0
DICTIONARY
  5
26E
330
37
100
AcDbDictionary
280
     1
281
     1
  3
ACAD_XREC_ROUNDTRIP
360
26F
  0
XRECORD
  5
279
102
{ACAD_REACTORS
330
278
102
}
330
278
100
AcDbXrecord
280
     1
102
MATERIAL
148
0.0
149
0.0
149
0.0
 93
        0
 94
      127
282
     0
 72
     1
 77
     1
171
     1
175
     1
179
     1
273
     0
  0
XRECORD
  5
277
102
{ACAD_REACTORS
330
276
102
}
330
276
100
AcDbXrecord
280
     1
102
MATERIAL
148
0.0
149
0.0
149
0.0
 93
        0
 94
      127
282
     0
 72
     1
 77
     1
171
     1
175
     1
179
     1
273
     0
  0
XRECORD
  5
27B
102
{ACAD_REACTORS
330
27A
102
}
330
27A
100
AcDbXrecord
280
     1
102
MATERIAL
148
0.0
149
0.0
149
0.0
 93
        0
 94
      127
282
     0
 72
     1
 77
     1
171
     1
175
     1
179
     1
273
     0
  0
XRECORD
  5
25F
102
{ACAD_REACTORS
330
25E
102
}
330
25E
100
AcDbXrecord
280
     1
102
RTVSPropertyOp0
 70
     1
102
RTVSPropertyOp1
 70
     1
102
RTVSPropertyOp2
 70
     1
102
RTVSPropertyOp3
 70
     1
102
RTVSPropertyOp4
 70
     1
102
RTVSPropertyOp5
 70
     1
102
RTVSPropertyOp6
 70
     1
102
RTVSPropertyOp7
 70
     1
102
RTVSPropertyOp8
 70
     1
102
RTVSPropertyOp9
 70
     1
102
RTVSPropertyOp10
 70
     1
102
RTVSPropertyOp11
 70
     1
102
RTVSPropertyOp12
 70
     1
102
RTVSPropertyOp13
 70
     1
102
RTVSPropertyOp14
 70
     1
102
RTVSPropertyOp15
 70
     1
102
RTVSPropertyOp16
 70
     1
102
RTVSPropertyOp17
 70
     1
102
RTVSPropertyOp18
 70
     1
102
RTVSPropertyOp19
 70
     1
102
RTVSPropertyOp20
 70
     1
102
RTVSPropertyOp21
 70
     1
102
RTVSPropertyOp22
 70
     1
102
RTVSPropertyOp23
 70
     1
102
RTVSPropertyOp24
 70
     1
102
RTVSPropertyOp25
 70
     1
102
RTVSPropertyOp26
 70
     1
102
RTVSPropertyOp27
 70
     1
  0
XRECORD
  5
263
102
{ACAD_REACTORS
330
262
102
}
330
262
100
AcDbXrecord
280
     1
102
RTVSPropertyOp0
 70
     1
102
RTVSPropertyOp1
 70
     1
102
RTVSPropertyOp2
 70
     1
102
RTVSPropertyOp3
 70
     1
102
RTVSPropertyOp4
 70
     1
102
RTVSPropertyOp5
 70
     1
102
RTVSPropertyOp6
 70
     1
102
RTVSPropertyOp7
 70
     1
102
RTVSPropertyOp8
 70
     1
102
RTVSPropertyOp9
 70
     1
102
RTVSPropertyOp10
 70
     1
102
RTVSPropertyOp11
 70
     1
102
RTVSPropertyOp12
 70
     1
102
RTVSPropertyOp13
 70
     1
102
RTVSPropertyOp14
 70
     1
102
RTVSPropertyOp15
 70
     1
102
RTVSPropertyOp16
 70
     1
102
RTVSPropertyOp17
 70
     1
102
RTVSPropertyOp18
 70
     1
102
RTVSPropertyOp19
 70
     1
102
RTVSPropertyOp20
 70
     1
102
RTVSPropertyOp21
 70
     1
102
RTVSPropertyOp22
 70
     1
102
RTVSPropertyOp23
 70
     1
102
RTVSPropertyOp24
 70
     1
102
RTVSPropertyOp25
 70
     1
102
RTVSPropertyOp26
 70
     1
102
RTVSPropertyOp27
 70
     1
  0
XRECORD
  5
261
102
{ACAD_REACTORS
330
260
102
}
330
260
100
AcDbXrecord
280
     1
102
RTVSPropertyOp0
 70
     1
102
RTVSPropertyOp1
 70
     1
102
RTVSPropertyOp2
 70
     1
102
RTVSPropertyOp3
 70
     1
102
RTVSPropertyOp4
 70
     1
102
RTVSPropertyOp5
 70
     1
102
RTVSPropertyOp6
 70
     1
102
RTVSPropertyOp7
 70
     1
102
RTVSPropertyOp8
 70
     1
102
RTVSPropertyOp9
 70
     1
102
RTVSPropertyOp10
 70
     1
102
RTVSPropertyOp11
 70
     1
102
RTVSPropertyOp12
 70
     1
102
RTVSPropertyOp13
 70
     1
102
RTVSPropertyOp14
 70
     1
102
RTVSPropertyOp15
 70
     1
102
RTVSPropertyOp16
 70
     1
102
RTVSPropertyOp17
 70
     1
102
RTVSPropertyOp18
 70
     1
102
RTVSPropertyOp19
 70
     1
102
RTVSPropertyOp20
 70
     1
102
RTVSPropertyOp21
 70
     1
102
RTVSPropertyOp22
 70
     1
102
RTVSPropertyOp23
 70
     1
102
RTVSPropertyOp24
 70
     1
102
RTVSPropertyOp25
 70
     1
102
RTVSPropertyOp26
 70
     1
102
RTVSPropertyOp27
 70
     1
  0
XRECORD
  5
265
102
{ACAD_REACTORS
330
264
102
}
330
264
100
AcDbXrecord
280
     1
102
RTVSPropertyOp0
 70
     1
102
RTVSPropertyOp1
 70
     1
102
RTVSPropertyOp2
 70
     1
102
RTVSPropertyOp3
 70
     1
102
RTVSPropertyOp4
 70
     1
102
RTVSPropertyOp5
 70
     1
102
RTVSPropertyOp6
 70
     1
102
RTVSPropertyOp7
 70
     1
102
RTVSPropertyOp8
 70
     1
102
RTVSPropertyOp9
 70
     1
102
RTVSPropertyOp10
 70
     1
102
RTVSPropertyOp11
 70
     1
102
RTVSPropertyOp12
 70
     1
102
RTVSPropertyOp13
 70
     1
102
RTVSPropertyOp14
 70
     1
102
RTVSPropertyOp15
 70
     1
102
RTVSPropertyOp16
 70
     1
102
RTVSPropertyOp17
 70
     1
102
RTVSPropertyOp18
 70
     1
102
RTVSPropertyOp19
 70
     1
102
RTVSPropertyOp20
 70
     1
102
RTVSPropertyOp21
 70
     1
102
RTVSPropertyOp22
 70
     1
102
RTVSPropertyOp23
 70
     1
102
RTVSPropertyOp24
 70
     1
102
RTVSPropertyOp25
 70
     1
102
RTVSPropertyOp26
 70
     1
102
RTVSPropertyOp27
 70
     1
  0
XRECORD
  5
26D
102
{ACAD_REACTORS
330
26C
102
}
330
26C
100
AcDbXrecord
280
     1
102
RTVSPropertyOp0
 70
     1
102
RTVSPropertyOp1
 70
     1
102
RTVSPropertyOp2
 70
     1
102
RTVSPropertyOp3
 70
     1
102
RTVSPropertyOp4
 70
     1
102
RTVSPropertyOp5
 70
     1
102
RTVSPropertyOp6
 70
     1
102
RTVSPropertyOp7
 70
     1
102
RTVSPropertyOp8
 70
     1
102
RTVSPropertyOp9
 70
     1
102
RTVSPropertyOp10
 70
     1
102
RTVSPropertyOp11
 70
     1
102
RTVSPropertyOp12
 70
     1
102
RTVSPropertyOp13
 70
     1
102
RTVSPropertyOp14
 70
     1
102
RTVSPropertyOp15
 70
     1
102
RTVSPropertyOp16
 70
     1
102
RTVSPropertyOp17
 70
     1
102
RTVSPropertyOp18
 70
     1
102
RTVSPropertyOp19
 70
     1
102
RTVSPropertyOp20
 70
     1
102
RTVSPropertyOp21
 70
     1
102
RTVSPropertyOp22
 70
     1
102
RTVSPropertyOp23
 70
     1
102
RTVSPropertyOp24
 70
     1
102
RTVSPropertyOp25
 70
     1
102
RTVSPropertyOp26
 70
     1
102
RTVSPropertyOp27
 70
     1
  0
XRECORD
  5
275
102
{ACAD_REACTORS
330
274
102
}
330
274
100
AcDbXrecord
280
     1
102
RTVSPropertyOp0
 70
     1
102
RTVSPropertyOp1
 70
     1
102
RTVSPropertyOp2
 70
     1
102
RTVSPropertyOp3
 70
     1
102
RTVSPropertyOp4
 70
     1
102
RTVSPropertyOp5
 70
     1
102
RTVSPropertyOp6
 70
     1
102
RTVSPropertyOp7
 70
     1
102
RTVSPropertyOp8
 70
     1
102
RTVSPropertyOp9
 70
     1
102
RTVSPropertyOp10
 70
     1
102
RTVSPropertyOp11
 70
     1
102
RTVSPropertyOp12
 70
     1
102
RTVSPropertyOp13
 70
     1
102
RTVSPropertyOp14
 70
     1
102
RTVSPropertyOp15
 70
     1
102
RTVSPropertyOp16
 70
     1
102
RTVSPropertyOp17
 70
     1
102
RTVSPropertyOp18
 70
     1
102
RTVSPropertyOp19
 70
     1
102
RTVSPropertyOp20
 70
     1
102
RTVSPropertyOp21
 70
     1
102
RTVSPropertyOp22
 70
     1
102
RTVSPropertyOp23
 70
     1
102
RTVSPropertyOp24
 70
     1
102
RTVSPropertyOp25
 70
     1
102
RTVSPropertyOp26
 70
     1
102
RTVSPropertyOp27
 70
     1
  0
XRECORD
  5
269
102
{ACAD_REACTORS
330
268
102
}
330
268
100
AcDbXrecord
280
     1
102
RTVSPropertyOp0
 70
     1
102
RTVSPropertyOp1
 70
     1
102
RTVSPropertyOp2
 70
     1
102
RTVSPropertyOp3
 70
     1
102
RTVSPropertyOp4
 70
     1
102
RTVSPropertyOp5
 70
     1
102
RTVSPropertyOp6
 70
     1
102
RTVSPropertyOp7
 70
     1
102
RTVSPropertyOp8
 70
     1
102
RTVSPropertyOp9
 70
     1
102
RTVSPropertyOp10
 70
     1
102
RTVSPropertyOp11
 70
     1
102
RTVSPropertyOp12
 70
     1
102
RTVSPropertyOp13
 70
     1
102
RTVSPropertyOp14
 70
     1
102
RTVSPropertyOp15
 70
     1
102
RTVSPropertyOp16
 70
     1
102
RTVSPropertyOp17
 70
     1
102
RTVSPropertyOp18
 70
     1
102
RTVSPropertyOp19
 70
     1
102
RTVSPropertyOp20
 70
     1
102
RTVSPropertyOp21
 70
     1
102
RTVSPropertyOp22
 70
     1
102
RTVSPropertyOp23
 70
     1
102
RTVSPropertyOp24
 70
     1
102
RTVSPropertyOp25
 70
     1
102
RTVSPropertyOp26
 70
     1
102
RTVSPropertyOp27
 70
     1
  0
XRECORD
  5
26B
102
{ACAD_REACTORS
330
26A
102
}
330
26A
100
AcDbXrecord
280
     1
102
RTVSPropertyOp0
 70
     1
102
RTVSPropertyOp1
 70
     1
102
RTVSPropertyOp2
 70
     1
102
RTVSPropertyOp3
 70
     1
102
RTVSPropertyOp4
 70
     1
102
RTVSPropertyOp5
 70
     1
102
RTVSPropertyOp6
 70
     1
102
RTVSPropertyOp7
 70
     1
102
RTVSPropertyOp8
 70
     1
102
RTVSPropertyOp9
 70
     1
102
RTVSPropertyOp10
 70
     1
102
RTVSPropertyOp11
 70
     1
102
RTVSPropertyOp12
 70
     1
102
RTVSPropertyOp13
 70
     1
102
RTVSPropertyOp14
 70
     1
102
RTVSPropertyOp15
 70
     1
102
RTVSPropertyOp16
 70
     1
102
RTVSPropertyOp17
 70
     1
102
RTVSPropertyOp18
 70
     1
102
RTVSPropertyOp19
 70
     1
102
RTVSPropertyOp20
 70
     1
102
RTVSPropertyOp21
 70
     1
102
RTVSPropertyOp22
 70
     1
102
RTVSPropertyOp23
 70
     1
102
RTVSPropertyOp24
 70
     1
102
RTVSPropertyOp25
 70
     1
102
RTVSPropertyOp26
 70
     1
102
RTVSPropertyOp27
 70
     1
  0
XRECORD
  5
273
102
{ACAD_REACTORS
330
272
102
}
330
272
100
AcDbXrecord
280
     1
102
RTVSPropertyOp0
 70
     1
102
RTVSPropertyOp1
 70
     1
102
RTVSPropertyOp2
 70
     1
102
RTVSPropertyOp3
 70
     1
102
RTVSPropertyOp4
 70
     1
102
RTVSPropertyOp5
 70
     1
102
RTVSPropertyOp6
 70
     1
102
RTVSPropertyOp7
 70
     1
102
RTVSPropertyOp8
 70
     1
102
RTVSPropertyOp9
 70
     1
102
RTVSPropertyOp10
 70
     1
102
RTVSPropertyOp11
 70
     1
102
RTVSPropertyOp12
 70
     1
102
RTVSPropertyOp13
 70
     1
102
RTVSPropertyOp14
 70
     1
102
RTVSPropertyOp15
 70
     1
102
RTVSPropertyOp16
 70
     1
102
RTVSPropertyOp17
 70
     1
102
RTVSPropertyOp18
 70
     1
102
RTVSPropertyOp19
 70
     1
102
RTVSPropertyOp20
 70
     1
102
RTVSPropertyOp21
 70
     1
102
RTVSPropertyOp22
 70
     1
102
RTVSPropertyOp23
 70
     1
102
RTVSPropertyOp24
 70
     1
102
RTVSPropertyOp25
 70
     1
102
RTVSPropertyOp26
 70
     1
102
RTVSPropertyOp27
 70
     1
  0
XRECORD
  5
257
102
{ACAD_REACTORS
330
256
102
}
330
256
100
AcDbXrecord
280
     1
102
RTVSPropertyOp0
 70
     1
102
RTVSPropertyOp1
 70
     1
102
RTVSPropertyOp2
 70
     1
102
RTVSPropertyOp3
 70
     1
102
RTVSPropertyOp4
 70
     1
102
RTVSPropertyOp5
 70
     1
102
RTVSPropertyOp6
 70
     1
102
RTVSPropertyOp7
 70
     1
102
RTVSPropertyOp8
 70
     1
102
RTVSPropertyOp9
 70
     1
102
RTVSPropertyOp10
 70
     1
102
RTVSPropertyOp11
 70
     1
102
RTVSPropertyOp12
 70
     1
102
RTVSPropertyOp13
 70
     1
102
RTVSPropertyOp14
 70
     1
102
RTVSPropertyOp15
 70
     1
102
RTVSPropertyOp16
 70
     1
102
RTVSPropertyOp17
 70
     1
102
RTVSPropertyOp18
 70
     1
102
RTVSPropertyOp19
 70
     1
102
RTVSPropertyOp20
 70
     1
102
RTVSPropertyOp21
 70
     1
102
RTVSPropertyOp22
 70
     1
102
RTVSPropertyOp23
 70
     1
102
RTVSPropertyOp24
 70
     1
102
RTVSPropertyOp25
 70
     1
102
RTVSPropertyOp26
 70
     1
102
RTVSPropertyOp27
 70
     1
  0
XRECORD
  5
259
102
{ACAD_REACTORS
330
258
102
}
330
258
100
AcDbXrecord
280
     1
102
RTVSPropertyOp0
 70
     1
102
RTVSPropertyOp1
 70
     1
102
RTVSPropertyOp2
 70
     1
102
RTVSPropertyOp3
 70
     1
102
RTVSPropertyOp4
 70
     1
102
RTVSPropertyOp5
 70
     1
102
RTVSPropertyOp6
 70
     1
102
RTVSPropertyOp7
 70
     1
102
RTVSPropertyOp8
 70
     1
102
RTVSPropertyOp9
 70
     1
102
RTVSPropertyOp10
 70
     1
102
RTVSPropertyOp11
 70
     1
102
RTVSPropertyOp12
 70
     1
102
RTVSPropertyOp13
 70
     1
102
RTVSPropertyOp14
 70
     1
102
RTVSPropertyOp15
 70
     1
102
RTVSPropertyOp16
 70
     1
102
RTVSPropertyOp17
 70
     1
102
RTVSPropertyOp18
 70
     1
102
RTVSPropertyOp19
 70
     1
102
RTVSPropertyOp20
 70
     1
102
RTVSPropertyOp21
 70
     1
102
RTVSPropertyOp22
 70
     1
102
RTVSPropertyOp23
 70
     1
102
RTVSPropertyOp24
 70
     1
102
RTVSPropertyOp25
 70
     1
102
RTVSPropertyOp26
 70
     1
102
RTVSPropertyOp27
 70
     1
  0
XRECORD
  5
25B
102
{ACAD_REACTORS
330
25A
102
}
330
25A
100
AcDbXrecord
280
     1
102
RTVSPropertyOp0
 70
     1
102
RTVSPropertyOp1
 70
     1
102
RTVSPropertyOp2
 70
     1
102
RTVSPropertyOp3
 70
     1
102
RTVSPropertyOp4
 70
     1
102
RTVSPropertyOp5
 70
     1
102
RTVSPropertyOp6
 70
     1
102
RTVSPropertyOp7
 70
     1
102
RTVSPropertyOp8
 70
     1
102
RTVSPropertyOp9
 70
     1
102
RTVSPropertyOp10
 70
     1
102
RTVSPropertyOp11
 70
     1
102
RTVSPropertyOp12
 70
     1
102
RTVSPropertyOp13
 70
     1
102
RTVSPropertyOp14
 70
     1
102
RTVSPropertyOp15
 70
     1
102
RTVSPropertyOp16
 70
     1
102
RTVSPropertyOp17
 70
     1
102
RTVSPropertyOp18
 70
     1
102
RTVSPropertyOp19
 70
     1
102
RTVSPropertyOp20
 70
     1
102
RTVSPropertyOp21
 70
     1
102
RTVSPropertyOp22
 70
     1
102
RTVSPropertyOp23
 70
     1
102
RTVSPropertyOp24
 70
     1
102
RTVSPropertyOp25
 70
     1
102
RTVSPropertyOp26
 70
     1
102
RTVSPropertyOp27
 70
     1
  0
XRECORD
  5
25D
102
{ACAD_REACTORS
330
25C
102
}
330
25C
100
AcDbXrecord
280
     1
102
RTVSPropertyOp0
 70
     1
102
RTVSPropertyOp1
 70
     1
102
RTVSPropertyOp2
 70
     1
102
RTVSPropertyOp3
 70
     1
102
RTVSPropertyOp4
 70
     1
102
RTVSPropertyOp5
 70
     1
102
RTVSPropertyOp6
 70
     1
102
RTVSPropertyOp7
 70
     1
102
RTVSPropertyOp8
 70
     1
102
RTVSPropertyOp9
 70
     1
102
RTVSPropertyOp10
 70
     1
102
RTVSPropertyOp11
 70
     1
102
RTVSPropertyOp12
 70
     1
102
RTVSPropertyOp13
 70
     1
102
RTVSPropertyOp14
 70
     1
102
RTVSPropertyOp15
 70
     1
102
RTVSPropertyOp16
 70
     1
102
RTVSPropertyOp17
 70
     1
102
RTVSPropertyOp18
 70
     1
102
RTVSPropertyOp19
 70
     1
102
RTVSPropertyOp20
 70
     1
102
RTVSPropertyOp21
 70
     1
102
RTVSPropertyOp22
 70
     1
102
RTVSPropertyOp23
 70
     1
102
RTVSPropertyOp24
 70
     1
102
RTVSPropertyOp25
 70
     1
102
RTVSPropertyOp26
 70
     1
102
RTVSPropertyOp27
 70
     1
  0
XRECORD
  5
271
102
{ACAD_REACTORS
330
270
102
}
330
270
100
AcDbXrecord
280
     1
102
RTVSPropertyOp0
 70
     1
102
RTVSPropertyOp1
 70
     1
102
RTVSPropertyOp2
 70
     1
102
RTVSPropertyOp3
 70
     1
102
RTVSPropertyOp4
 70
     1
102
RTVSPropertyOp5
 70
     1
102
RTVSPropertyOp6
 70
     1
102
RTVSPropertyOp7
 70
     1
102
RTVSPropertyOp8
 70
     1
102
RTVSPropertyOp9
 70
     1
102
RTVSPropertyOp10
 70
     1
102
RTVSPropertyOp11
 70
     1
102
RTVSPropertyOp12
 70
     1
102
RTVSPropertyOp13
 70
     1
102
RTVSPropertyOp14
 70
     1
102
RTVSPropertyOp15
 70
     1
102
RTVSPropertyOp16
 70
     1
102
RTVSPropertyOp17
 70
     1
102
RTVSPropertyOp18
 70
     1
102
RTVSPropertyOp19
 70
     1
102
RTVSPropertyOp20
 70
     1
102
RTVSPropertyOp21
 70
     1
102
RTVSPropertyOp22
 70
     1
102
RTVSPropertyOp23
 70
     1
102
RTVSPropertyOp24
 70
     1
102
RTVSPropertyOp25
 70
     1
102
RTVSPropertyOp26
 70
     1
102
RTVSPropertyOp27
 70
     1
  0
XRECORD
  5
267
102
{ACAD_REACTORS
330
266
102
}
330
266
100
AcDbXrecord
280
     1
102
RTVSPropertyOp0
 70
     1
102
RTVSPropertyOp1
 70
     1
102
RTVSPropertyOp2
 70
     1
102
RTVSPropertyOp3
 70
     1
102
RTVSPropertyOp4
 70
     1
102
RTVSPropertyOp5
 70
     1
102
RTVSPropertyOp6
 70
     1
102
RTVSPropertyOp7
 70
     1
102
RTVSPropertyOp8
 70
     1
102
RTVSPropertyOp9
 70
     1
102
RTVSPropertyOp10
 70
     1
102
RTVSPropertyOp11
 70
     1
102
RTVSPropertyOp12
 70
     1
102
RTVSPropertyOp13
 70
     1
102
RTVSPropertyOp14
 70
     1
102
RTVSPropertyOp15
 70
     1
102
RTVSPropertyOp16
 70
     1
102
RTVSPropertyOp17
 70
     1
102
RTVSPropertyOp18
 70
     1
102
RTVSPropertyOp19
 70
     1
102
RTVSPropertyOp20
 70
     1
102
RTVSPropertyOp21
 70
     1
102
RTVSPropertyOp22
 70
     1
102
RTVSPropertyOp23
 70
     1
102
RTVSPropertyOp24
 70
     1
102
RTVSPropertyOp25
 70
     1
102
RTVSPropertyOp26
 70
     1
102
RTVSPropertyOp27
 70
     1
  0
XRECORD
  5
26F
102
{ACAD_REACTORS
330
26E
102
}
330
26E
100
AcDbXrecord
280
     1
102
RTVSPropertyOp0
 70
     1
102
RTVSPropertyOp1
 70
     1
102
RTVSPropertyOp2
 70
     1
102
RTVSPropertyOp3
 70
     1
102
RTVSPropertyOp4
 70
     1
102
RTVSPropertyOp5
 70
     1
102
RTVSPropertyOp6
 70
     1
102
RTVSPropertyOp7
 70
     1
102
RTVSPropertyOp8
 70
     1
102
RTVSPropertyOp9
 70
     1
102
RTVSPropertyOp10
 70
     1
102
RTVSPropertyOp11
 70
     1
102
RTVSPropertyOp12
 70
     1
102
RTVSPropertyOp13
 70
     1
102
RTVSPropertyOp14
 70
     1
102
RTVSPropertyOp15
 70
     1
102
RTVSPropertyOp16
 70
     1
102
RTVSPropertyOp17
 70
     1
102
RTVSPropertyOp18
 70
     1
102
RTVSPropertyOp19
 70
     1
102
RTVSPropertyOp20
 70
     1
102
RTVSPropertyOp21
 70
     1
102
RTVSPropertyOp22
 70
     1
102
RTVSPropertyOp23
 70
     1
102
RTVSPropertyOp24
 70
     1
102
RTVSPropertyOp25
 70
     1
102
RTVSPropertyOp26
 70
     1
102
RTVSPropertyOp27
 70
     1
  0
ENDSEC
  0
EOF
